<?xml version="1.0" standalone="no"?>
<!DOCTYPE svg PUBLIC "-//W3C//DTD SVG 1.1//EN" "http://www.w3.org/Graphics/SVG/1.1/DTD/svg11.dtd" >
<svg xmlns="http://www.w3.org/2000/svg" xmlns:xlink="http://www.w3.org/1999/xlink" version="1.1">
<metadata></metadata>
<defs>
<font id="uni_neuelight" horiz-adv-x="1089" >
<font-face units-per-em="2048" ascent="1536" descent="-512" />
<missing-glyph horiz-adv-x="485" />
<glyph horiz-adv-x="0" />
<glyph horiz-adv-x="682" />
<glyph unicode=" "  horiz-adv-x="485" />
<glyph unicode="&#x09;" horiz-adv-x="485" />
<glyph unicode="&#xa0;" horiz-adv-x="485" />
<glyph unicode="!" horiz-adv-x="436" d="M164 49q0 25 15 41t40 16t40 -16t15 -41t-15 -40t-40 -15t-40 15t-15 40zM184 1126v326q0 12 13 12h43q12 0 12 -12v-326l-2 -811q0 -12 -12 -12h-37q-15 0 -15 12z" />
<glyph unicode="&#x22;" horiz-adv-x="536" d="M127 1094l27 358q0 12 12 12h47q10 0 10 -12l-41 -360q0 -4 -4.5 -8.5t-9.5 -4.5h-29q-12 0 -12 15zM328 1094l24 358q0 12 15 12h45q12 0 12 -12l-41 -360q0 -5 -5 -9t-11 -4h-27q-12 0 -12 15z" />
<glyph unicode="#" horiz-adv-x="1419" d="M74 475l10 31q4 12 12 12h297l123 438h-293q-16 0 -10 15l8 33q5 10 15 10h296l125 440q3 10 13 10h37q13 0 10 -14l-123 -436h393l125 440q3 10 12 10h37q13 0 10 -14l-122 -436h284q6 0 10 -5t3 -12l-11 -30q-4 -11 -12 -11h-291l-123 -438h287q16 0 10 -16l-8 -31 q-7 -10 -14 -10h-289l-129 -451q-3 -10 -12 -10h-37q-13 0 -10 14l127 447h-394l-129 -451q-3 -10 -12 -10h-37q-14 0 -10 14l127 447h-293q-15 0 -12 14zM455 518h393l123 438h-393z" />
<glyph unicode="$" horiz-adv-x="1181" d="M111 1112q0 173 126 270t324 103v151q0 15 12 15h35q6 0 10.5 -4.5t4.5 -10.5v-151q117 -6 210.5 -45.5t198.5 -124.5q9 -6 2 -17l-20 -30q-8 -8 -19 -2q-101 82 -200.5 118.5t-216.5 38.5q-176 0 -289 -82.5t-113 -228.5q0 -63 21 -113t54 -84t89.5 -61.5t111.5 -45 t136 -36.5q44 -11 71 -18t69.5 -19t69 -22.5t63 -26t60 -32.5t50.5 -38.5t44 -47t31.5 -56t21.5 -67t7 -78.5q0 -177 -122 -278t-330 -109v-164q0 -6 -4.5 -10.5t-10.5 -4.5h-35q-12 0 -12 15v164q-123 4 -229 53t-213 147q-6 3 -6.5 8.5t4.5 8.5l20 30q9 9 19 2 q111 -97 215.5 -142.5t226.5 -45.5q184 0 298 85t114 239q0 69 -29 124t-59.5 85.5t-104.5 61t-107.5 39.5t-125.5 31q-13 3 -19 5q-84 20 -143.5 39.5t-122 52t-101 72.5t-63 100.5t-24.5 136.5z" />
<glyph unicode="%" horiz-adv-x="1540" d="M117 946v289q0 107 68.5 172.5t176.5 65.5t177 -66t69 -172v-289q0 -98 -70 -162.5t-176 -64.5t-175.5 64.5t-69.5 162.5zM170 948q0 -76 54 -127t138 -51t137.5 51t53.5 127v285q0 84 -52.5 136t-138.5 52t-139 -52t-53 -136v-285zM201 5q-3 5 0 11l1036 1426q5 8 16 8 h37q16 0 8 -16l-1036 -1426q-5 -8 -16 -8h-35q-7 0 -10 5zM936 211v289q0 106 69 171.5t177 65.5q109 0 177 -65t68 -172v-289q0 -98 -69.5 -162.5t-175.5 -64.5q-105 0 -175.5 64.5t-70.5 162.5zM991 213q0 -76 53.5 -127t137.5 -51q85 0 138.5 51t53.5 127v285 q0 84 -53 136t-139 52t-138.5 -52t-52.5 -136v-285z" />
<glyph unicode="&#x26;" horiz-adv-x="1198" d="M98 352q0 133 76 239t232 195q-106 131 -151.5 224.5t-45.5 177.5q0 133 90 215t244 82q150 0 235.5 -79.5t85.5 -207.5q0 -118 -87.5 -220t-278.5 -208q210 -248 401 -469q51 95 98 234q3 15 17 8l33 -13q13 -5 10 -18q-51 -158 -115 -262q29 -33 101.5 -114.5 t105.5 -119.5q13 -16 -6 -16h-51q-13 0 -17 8l-170 189q-83 -108 -175.5 -162.5t-225.5 -54.5q-182 0 -294 99t-112 273zM164 352q0 -147 93 -228t251 -81q112 0 196 48.5t160 154.5q-289 331 -420 491q-145 -81 -212.5 -175t-67.5 -210zM274 1188q0 -80 44 -163.5 t143 -205.5q179 98 258.5 187.5t79.5 191.5q0 103 -67 164t-191 61q-127 0 -197 -64t-70 -171z" />
<glyph unicode="'" horiz-adv-x="333" d="M127 1094l25 358q0 12 12 12h47q10 0 10 -12l-41 -360q0 -5 -4 -9t-10 -4h-27q-12 0 -12 15z" />
<glyph unicode="(" horiz-adv-x="516" d="M115 729q0 500 282 959q3 8 17 8h43q7 0 9 -5.5t-1 -11.5q-285 -448 -285 -950q0 -504 285 -952q3 -6 1 -11.5t-9 -5.5h-43q-14 0 -17 9q-140 229 -211 463.5t-71 496.5z" />
<glyph unicode=")" horiz-adv-x="514" d="M46 -234.5q-2 5.5 1 11.5q285 448 285 952q0 502 -285 950q-3 6 -1 11.5t9 5.5h43q14 0 17 -8q282 -459 282 -959q0 -262 -71 -496.5t-211 -463.5q-3 -9 -17 -9h-43q-7 0 -9 5.5z" />
<glyph unicode="*" horiz-adv-x="940" d="M109 1190l12 33q4 14 16 10l303 -98v317q0 12 13 12h34q15 0 15 -12v-319l301 98q12 3 18 -8l10 -31q4 -14 -8 -18l-303 -97l187 -258q8 -8 -2 -18l-29 -23q-3 -3 -8.5 -1.5t-8.5 5.5l-188 256l-186 -256q-8 -8 -19 -4l-28 21q-12 8 -5 18l187 258l-301 96q-14 3 -10 19z " />
<glyph unicode="+" horiz-adv-x="1122" d="M127 664v36q0 15 12 15h389v391q0 12 15 12h39q12 0 12 -12v-391h389q12 0 12 -15v-36q0 -13 -12 -13h-389v-393q0 -14 -12 -14h-39q-15 0 -15 14v393h-389q-12 0 -12 13z" />
<glyph unicode="," horiz-adv-x="364" d="M63 -205l93 342q5 10 14 10h49q13 0 10 -16l-108 -340q-3 -10 -15 -10h-30q-16 0 -13 14z" />
<glyph unicode="-" horiz-adv-x="819" d="M143 610v37q0 12 13 12h508q12 0 12 -12v-37q0 -12 -12 -12h-508q-13 0 -13 12z" />
<glyph unicode="." horiz-adv-x="344" d="M117 51q0 25 15 40t40 15t40 -15t15 -40t-15 -40t-40 -15t-40 15t-15 40z" />
<glyph unicode="/" horiz-adv-x="811" d="M59 14l629 1440q3 10 14 10h41q6 0 8.5 -4.5t0.5 -9.5l-627 -1440q-3 -10 -14 -10h-43q-6 0 -8.5 4.5t-0.5 9.5z" />
<glyph unicode="0" horiz-adv-x="1243" d="M152 440v578q0 219 127.5 343t343.5 124q215 0 342 -124t127 -343v-578q0 -213 -128 -336.5t-341 -123.5q-214 0 -342.5 123.5t-128.5 336.5zM217 440q0 -187 109 -292t297 -105q186 0 294.5 105t108.5 292v576q0 193 -107.5 299t-295.5 106q-189 0 -297.5 -106 t-108.5 -299v-576z" />
<glyph unicode="1" horiz-adv-x="661" d="M51.5 1232q1.5 6 5.5 7l340 219q12 6 23 6h29q14 0 14 -12v-1440q0 -12 -14 -12h-39q-15 0 -15 12v1370l-305 -194q-10 -6 -18 2l-19 33q-3 3 -1.5 9z" />
<glyph unicode="2" horiz-adv-x="1112" d="M88 12v27q0 12 6 16l330 351q81 86 120 128t101 111.5t91.5 108.5t68 95t55.5 96t30 86.5t13 90.5q0 56 -19.5 108t-58.5 96t-105 70.5t-151 26.5q-128 0 -224.5 -53t-182.5 -151q-8 -11 -19 0l-22 28q-5 8 0 19q92 105 200 162t248 57q96 0 174 -30t126.5 -81t74 -115.5 t25.5 -136.5q0 -38 -8 -76.5t-18 -72t-35 -77.5t-42.5 -74t-58.5 -81.5t-65 -80.5t-80 -91t-85 -93.5t-98 -104.5l-291 -310h816q12 0 12 -12v-37q0 -12 -12 -12h-904q-12 0 -12 12z" />
<glyph unicode="3" horiz-adv-x="1144" d="M94 201q-9 9 0 18l25 25q11 5 20 -4q58 -64 110 -104t131 -67.5t175 -27.5q188 0 298 105.5t110 283.5q0 177 -109.5 279t-312.5 102q-64 0 -119 -6q-9 0 -12 8l-9 14q-2 3 -1.5 9t3.5 10l517 557h-758q-12 0 -12 12v37q0 12 12 12h837q15 0 15 -12v-25q0 -4 -6 -16 l-506 -547h37q236 3 362.5 -115.5t126.5 -318.5q0 -203 -128.5 -326.5t-344.5 -123.5q-151 0 -258 55t-203 166z" />
<glyph unicode="4" horiz-adv-x="1087" d="M59 414v24q0 10 7 17l579 1001q5 8 17 8h47q14 0 8 -16l-574 -985h643v358q0 13 13 13h41q12 0 12 -13v-358h158q14 0 14 -12v-37q0 -13 -14 -13h-158v-389q0 -12 -12 -12h-41q-13 0 -13 12v389h-712q-15 0 -15 13z" />
<glyph unicode="5" horiz-adv-x="1159" d="M133 201q-7 10 2 16l27 27q9 9 18 -2q81 -99 174.5 -148t223.5 -49q189 0 297 115.5t108 316.5q0 205 -105.5 304.5t-283.5 99.5q-217 0 -371 -154q-10 -10 -18 -4l-41 14q-10 3 -10 13l26 702q0 12 13 12h774q14 0 14 -12v-37q0 -12 -14 -12h-723l-23 -602 q162 143 377 143q203 0 327 -117.5t124 -347.5q0 -225 -127.5 -360t-343.5 -135q-145 0 -251.5 54.5t-193.5 162.5z" />
<glyph unicode="6" horiz-adv-x="1177" d="M152 440v594q0 104 37 190.5t99.5 142.5t144.5 87t173 31q230 0 400 -156q5 -8 0 -18l-21 -27q-10 -10 -20 -2q-152 141 -357 141q-168 0 -278.5 -106.5t-110.5 -282.5v-356q33 77 98 131t140 78t155 24q212 0 332.5 -119.5t120.5 -342.5q0 -216 -124 -342.5t-331 -126.5 t-332.5 124t-125.5 336zM219 440q0 -187 105.5 -293t285.5 -106t283.5 109t103.5 299q0 195 -101 298t-284 103q-57 0 -112 -13.5t-106 -43.5t-89.5 -73t-62 -106.5t-23.5 -138.5v-35z" />
<glyph unicode="7" horiz-adv-x="1024" d="M51 1413v39q0 12 15 12h901q14 0 14 -12v-22q0 -11 -4 -15l-678 -1405q-3 -10 -16 -10h-45q-7 0 -10.5 4.5t-0.5 11.5l672 1385h-833q-6 0 -10.5 3.5t-4.5 8.5z" />
<glyph unicode="8" horiz-adv-x="1222" d="M127 406q0 131 83 232t230 134q-135 35 -202.5 127t-67.5 217q0 162 119.5 265.5t322.5 103.5t322 -103.5t119 -265.5q0 -125 -67 -217t-202 -127q147 -33 229.5 -134t82.5 -232q0 -189 -130 -307.5t-354 -118.5q-225 0 -355 118t-130 308zM195 410q0 -161 109 -265 t308 -104q198 0 308 104t110 265q0 144 -114 236.5t-304 92.5q-191 0 -304 -92.5t-113 -236.5zM236 1116q0 -140 96 -228.5t280 -88.5t279.5 88.5t95.5 228.5q0 144 -102 225.5t-273 81.5t-273.5 -81.5t-102.5 -225.5z" />
<glyph unicode="9" horiz-adv-x="1177" d="M115 1016q0 216 123 342.5t331 126.5q206 0 331.5 -124.5t125.5 -336.5v-594q0 -138 -63.5 -242t-165.5 -156t-226 -52q-240 0 -405 215q-6 10 0 16l24 29q8 11 19 0q71 -95 157 -147t205 -52q167 0 278.5 106.5t111.5 282.5v350q-49 -110 -161.5 -168.5t-234.5 -58.5 q-212 0 -331 119.5t-119 343.5zM180 1016q0 -195 101 -298.5t286 -103.5q56 0 111 13.5t106.5 43.5t90.5 72.5t62.5 105t23.5 136.5v39q0 187 -107 293t-287 106q-179 0 -283 -108.5t-104 -298.5z" />
<glyph unicode=":" horiz-adv-x="407" d="M150 49q0 26 15 40.5t40 14.5t39 -14.5t14 -40.5q0 -25 -14 -39t-39 -14t-40 14t-15 39zM150 977q0 25 15 40t40 15t39 -15t14 -40t-14 -40t-39 -15t-40 15t-15 40z" />
<glyph unicode=";" horiz-adv-x="468" d="M121 -205l92 344q4 11 12 11h51q6 0 9.5 -4.5t1.5 -10.5l-109 -344q-3 -10 -14 -10h-31q-15 0 -12 14zM197 977q0 25 15 40t40 15t40 -15t15 -40t-15 -40t-40 -15t-40 15t-15 40z" />
<glyph unicode="&#x3c;" horiz-adv-x="1122" d="M100 651v45q0 10 11 17l841 405q6 3 11.5 -0.5t5.5 -9.5v-45q0 -10 -11 -14l-784 -375l784 -373q11 -7 11 -16v-43q0 -7 -5.5 -11t-11.5 0l-841 404q-11 7 -11 16z" />
<glyph unicode="=" horiz-adv-x="1122" d="M127 479v39q0 12 12 12h844q12 0 12 -12v-39q0 -12 -12 -12h-844q-12 0 -12 12zM127 844v39q0 12 12 12h844q12 0 12 -12v-39q0 -13 -12 -13h-844q-12 0 -12 13z" />
<glyph unicode="&#x3e;" horiz-adv-x="1122" d="M154 242v43q0 9 10 16l784 373l-784 375q-10 3 -10 14v45q0 6 5 9.5t11 0.5l842 -405q10 -7 10 -17v-45q0 -9 -10 -16l-842 -404q-6 -4 -11 0t-5 11z" />
<glyph unicode="?" horiz-adv-x="915" d="M61 1298q-7 11 2 17q152 170 379 170q182 0 283.5 -105.5t101.5 -277.5q0 -72 -20.5 -132t-53.5 -101t-73 -78t-80 -71.5t-73 -71.5t-53.5 -88.5t-20.5 -113.5v-131q0 -12 -13 -12h-39q-14 0 -14 12v138q0 66 20.5 121t54 94t73.5 74.5t79.5 71t73 74.5t54 93.5 t20.5 120.5q0 63 -18 119t-55 102.5t-100.5 74t-146.5 27.5q-192 0 -342 -157q-3 -5 -8 -5t-8 7zM367 51q0 25 14 40t39 15t40 -15t15 -40t-15 -40t-40 -15t-39 15t-14 40z" />
<glyph unicode="@" horiz-adv-x="1929" d="M133 541v196q0 383 197.5 565.5t617.5 182.5q501 0 821 -346q7 -7 7 -17v-630q0 -328 -250 -328q-86 0 -155.5 49.5t-96.5 138.5q-36 -92 -121.5 -142t-194.5 -50q-155 0 -262.5 104.5t-107.5 265.5v181q0 162 98 259t262 97q89 0 189.5 -17.5t162.5 -41.5q11 -3 11 -13 v-524q0 -114 63 -182t152 -68q98 1 143 66.5t45 199.5v629q-71 70 -144.5 122t-166.5 97t-207.5 68.5t-245.5 23.5q-390 0 -572.5 -166.5t-182.5 -523.5v-196q0 -337 175 -523t504 -186q129 0 258.5 29.5t217.5 79.5q13 9 16 -7l10 -32q4 -12 -6 -15q-90 -52 -227.5 -83 t-272.5 -31q-355 0 -546 203.5t-191 564.5zM651 532q0 -142 89.5 -227.5t217.5 -85.5q118 0 202 68t87 170v508q-39 13 -128.5 28t-168.5 15q-138 0 -218.5 -80t-80.5 -217v-179z" />
<glyph unicode="A" horiz-adv-x="1206" d="M23 14l538 1440q3 10 12 10h58q11 0 14 -10l539 -1440q4 -14 -10 -14h-48q-7 0 -14 10l-166 449h-686l-168 -449q-3 -10 -12 -10h-47q-13 0 -10 14zM283 522h641l-318 858h-6z" />
<glyph unicode="B" horiz-adv-x="1269" d="M199 12v1440q0 12 14 12h436q120 0 209 -28t139.5 -78t74.5 -112t24 -136q0 -123 -65 -207t-179 -117q147 -29 225 -127.5t78 -252.5q0 -193 -131 -299.5t-375 -106.5h-436q-14 0 -14 12zM268 63h381q216 0 327 89.5t111 253.5q0 163 -99.5 255.5t-301.5 92.5h-418v-691z M268 817h418q160 0 250 77t90 216q0 61 -18.5 110.5t-59.5 91.5t-117 65.5t-182 23.5h-381v-584z" />
<glyph unicode="C" horiz-adv-x="1175" d="M150 465v534q0 219 130.5 352.5t360.5 133.5q243 0 432 -152q6 -3 6.5 -8t-4.5 -8l-22 -33q-7 -11 -19 -2q-175 139 -395 139q-204 0 -313 -116t-109 -306v-534q0 -190 110 -306t316 -116q240 0 424 158q9 9 16 -2l25 -33q7 -11 -4 -19q-187 -167 -459 -167 q-233 0 -364 132.5t-131 352.5z" />
<glyph unicode="D" horiz-adv-x="1347" d="M199 12v1440q0 12 14 12h485q231 0 366.5 -136.5t135.5 -373.5v-450q0 -237 -135.5 -370.5t-366.5 -133.5h-485q-14 0 -14 12zM268 66h428q204 0 319 114t115 324v450q0 211 -115.5 329t-318.5 118h-428v-1335z" />
<glyph unicode="E" horiz-adv-x="1153" d="M199 12v1440q0 12 14 12h799q12 0 12 -12v-39q0 -12 -12 -12h-744v-623h701q14 0 14 -12v-39q0 -12 -14 -12h-701v-652h774q13 0 13 -12v-39q0 -12 -13 -12h-829q-14 0 -14 12z" />
<glyph unicode="F" horiz-adv-x="1116" d="M199 12v1440q0 12 14 12h819q15 0 15 -12v-39q0 -12 -15 -12h-764v-645h707q12 0 12 -13v-38q0 -13 -12 -13h-707v-680q0 -12 -12 -12h-43q-14 0 -14 12z" />
<glyph unicode="G" horiz-adv-x="1298" d="M147 467v532q0 220 134 353t370 133q127 0 249 -41t222 -119q13 -7 2 -18l-22 -31q-7 -10 -19 -4q-89 72 -201.5 110.5t-230.5 38.5q-210 0 -323 -115t-113 -307v-532q0 -192 114.5 -307t327.5 -115q255 0 437 164v483h-430q-13 0 -13 13v38q0 13 13 13h485q12 0 12 -13 v-550q0 -11 -6 -17q-101 -97 -229.5 -146.5t-268.5 -49.5q-239 0 -374.5 134t-135.5 353z" />
<glyph unicode="H" horiz-adv-x="1378" d="M199 12v1440q0 12 14 12h43q12 0 12 -12v-674h842v674q0 12 14 12h41q15 0 15 -12v-1440q0 -12 -15 -12h-41q-14 0 -14 12v703h-842v-703q0 -12 -12 -12h-43q-14 0 -14 12z" />
<glyph unicode="I" horiz-adv-x="466" d="M199 12v1440q0 12 14 12h43q12 0 12 -12v-1440q0 -12 -12 -12h-43q-14 0 -14 12z" />
<glyph unicode="J" horiz-adv-x="1003" d="M41 164l22 31q6 12 19 2q82 -76 164.5 -114t181.5 -38q163 0 241.5 90t78.5 283v1034q0 12 12 12h43q12 0 12 -12v-1034q0 -438 -387 -438q-112 0 -204 41.5t-181 123.5q-10 7 -2 19z" />
<glyph unicode="K" horiz-adv-x="1234" d="M199 12v1440q0 12 14 12h43q12 0 12 -12v-805l817 809q8 8 19 8h57q8 0 11 -5t-3 -11l-651 -645l690 -787q5 -8 2.5 -12t-10.5 -4h-57q-12 0 -17 8l-655 748l-203 -199v-545q0 -12 -12 -12h-43q-14 0 -14 12z" />
<glyph unicode="L" horiz-adv-x="1011" d="M199 12v1440q0 12 14 12h43q12 0 12 -12v-1389h705q12 0 12 -12v-39q0 -12 -12 -12h-760q-14 0 -14 12z" />
<glyph unicode="M" horiz-adv-x="1720" d="M199 12v1440q0 12 14 12h57q12 0 17 -8l573 -1014l576 1014q3 8 14 8h57q15 0 15 -12v-1440q0 -12 -15 -12h-43q-12 0 -12 12l2 1346v2l-561 -993q-5 -9 -16 -9h-33q-8 0 -17 9l-561 993v-2l2 -1346q0 -12 -12 -12h-43q-14 0 -14 12z" />
<glyph unicode="N" horiz-adv-x="1431" d="M199 12v1440q0 12 14 12h51q12 0 15 -8l886 -1350l-2 1346q0 12 15 12h41q14 0 14 -12v-1440q0 -12 -14 -12h-50q-13 0 -16 8l-887 1346l2 -1342q0 -12 -12 -12h-43q-14 0 -14 12z" />
<glyph unicode="O" horiz-adv-x="1361" d="M147 459v530q0 222 146.5 359t388.5 137q241 0 386.5 -137t145.5 -359v-530q0 -209 -147.5 -344t-384.5 -135q-239 0 -387 135t-148 344zM215 459q0 -182 128 -298t339 -116q210 0 337.5 116t127.5 298v530q0 195 -126.5 313.5t-338.5 118.5q-214 0 -340.5 -118.5 t-126.5 -313.5v-530z" />
<glyph unicode="P" horiz-adv-x="1251" d="M199 12v1440q0 12 12 12h455q239 0 369 -118.5t130 -329.5q0 -213 -130 -330t-369 -117h-400v-557q0 -12 -12 -12h-43q-12 0 -12 12zM266 635h393q216 0 327.5 98t111.5 283q0 186 -112 285.5t-327 99.5h-393v-766z" />
<glyph unicode="Q" horiz-adv-x="1363" d="M147 463v526q0 220 147 358t388 138q240 0 386 -138t146 -358v-526q0 -204 -141 -336l144 -152q9 -9 0 -18l-25 -25q-8 -8 -18 2l-146 152q-151 -106 -346 -106q-238 0 -386.5 138t-148.5 345zM215 463q0 -181 128.5 -300.5t338.5 -119.5q166 0 299 94l-240 250 q-7 9 0 19l25 24q9 9 18 0l242 -254q121 118 121 287v526q0 192 -126.5 312t-338.5 120q-213 0 -340 -119.5t-127 -312.5v-526z" />
<glyph unicode="R" horiz-adv-x="1265" d="M199 12v1440q0 12 14 12h449q227 0 357 -111.5t130 -310.5q0 -187 -119 -296.5t-332 -120.5l473 -609q8 -16 -8 -16h-55q-13 0 -16 8l-474 615h-350v-611q0 -12 -12 -12h-43q-14 0 -14 12zM268 686h394q199 0 309 92t110 264q0 171 -110 265t-309 94h-394v-715z" />
<glyph unicode="S" horiz-adv-x="1214" d="M111 190l24 31q10 10 19 4q112 -94 220.5 -137t241.5 -43q197 0 315 82.5t118 239.5q0 138 -99 214.5t-348 133.5q-243 56 -364 154.5t-121 260.5q0 89 38 158t105 111.5t152.5 64t185.5 21.5q142 0 257 -40.5t220 -123.5q12 -6 2 -16l-20 -33q-8 -11 -19 -4 q-187 150 -448 153q-112 0 -201 -30.5t-146 -99t-57 -165.5q0 -135 103.5 -214t326.5 -132q274 -65 388 -157.5t114 -255.5q0 -184 -136.5 -285.5t-365.5 -101.5q-151 0 -266.5 45t-236.5 147q-8 8 -2 18z" />
<glyph unicode="T" horiz-adv-x="1093" d="M25 1413v39q0 12 12 12h1018q14 0 14 -12v-39q0 -12 -14 -12h-477v-1389q0 -12 -13 -12h-43q-14 0 -14 12v1389h-471q-12 0 -12 12z" />
<glyph unicode="U" horiz-adv-x="1378" d="M186 494v958q0 12 15 12h43q12 0 12 -12v-956q0 -207 112.5 -328t319.5 -121t320.5 121.5t113.5 327.5v956q0 12 13 12h43q14 0 14 -12v-958q0 -231 -134 -370.5t-370 -139.5q-234 0 -368 139.5t-134 370.5z" />
<glyph unicode="V" horiz-adv-x="1232" d="M20 1450q-1 6 2 10t9 4h45q9 0 16 -10l522 -1376h4l525 1376q3 10 14 10h45q14 0 10 -14l-548 -1440q-3 -10 -15 -10h-63q-10 0 -17 10z" />
<glyph unicode="W" horiz-adv-x="1908" d="M31 1450q-3 14 10 14h47q9 0 12 -10l389 -1368h3q221 704 426 1339q4 13 12 13h47q3 0 5 -1.5t3 -2.5t3 -4.5t3 -4.5l426 -1339q144 514 389 1368q3 10 15 10h45q6 0 9.5 -4t2.5 -10l-420 -1440q-3 -10 -12 -10h-55q-12 0 -15 10l-422 1327h-2q-49 -169 -422 -1327 q-3 -10 -12 -10h-55q-7 0 -14 10z" />
<glyph unicode="X" horiz-adv-x="1171" d="M47 5q-3 5 2 11l496 723l-473 709q-4 6 -2 11t10 5h53q11 0 14 -8l441 -663l436 663q5 8 16 8h54q6 0 8 -5t-2 -11l-471 -709l493 -723q5 -6 3 -11t-9 -5h-55q-11 0 -14 8l-459 678l-463 -678q-3 -8 -14 -8h-54q-7 0 -10 5z" />
<glyph unicode="Y" horiz-adv-x="1097" d="M20 1448q-6 16 11 16h49q11 0 14 -8l455 -809l455 809q3 8 16 8h47q16 0 10 -16l-493 -868v-568q0 -12 -15 -12h-43q-12 0 -12 12v568z" />
<glyph unicode="Z" horiz-adv-x="1132" d="M66 12v25q0 8 6 14l886 1350h-849q-13 0 -13 12v39q0 12 13 12h927q13 0 13 -12v-27q0 -1 -5 -16l-884 -1346h891q12 0 12 -12v-39q0 -12 -12 -12h-973q-12 0 -12 12z" />
<glyph unicode="[" horiz-adv-x="507" d="M186 -227v1910q0 13 15 13h233q12 0 12 -13v-36q0 -5 -4 -9t-8 -4h-182v-1812h182q4 0 8 -4t4 -8v-37q0 -13 -12 -13h-233q-15 0 -15 13z" />
<glyph unicode="\" horiz-adv-x="811" d="M59 1450q-2 5 0.5 9.5t8.5 4.5h41q11 0 14 -10l629 -1440q2 -5 -0.5 -9.5t-8.5 -4.5h-43q-11 0 -14 10z" />
<glyph unicode="]" horiz-adv-x="507" d="M61 -190q0 4 4 8t9 4h182v1812h-182q-4 0 -8.5 4t-4.5 9v36q0 13 13 13h233q15 0 15 -13v-1910q0 -13 -15 -13h-233q-13 0 -13 13v37z" />
<glyph unicode="^" horiz-adv-x="1122" d="M111 1188q-2 4 4 12l409 475q5 8 17 8h41q11 0 16 -8l410 -475q6 -8 3.5 -12t-10.5 -4h-57q-10 0 -14 8l-369 432l-368 -432q-4 -8 -15 -8h-57q-8 0 -10 4z" />
<glyph unicode="_" horiz-adv-x="1134" d="M53 -35q0 15 13 15h1003q12 0 12 -15v-35q0 -12 -12 -12h-1003q-13 0 -13 12v35z" />
<glyph unicode="`" horiz-adv-x="262" d="M-37 1509q-10 17 6 17h51q11 0 15 -8l170 -275q4 -7 1 -11.5t-11 -4.5h-31q-9 0 -17 8z" />
<glyph unicode="a" horiz-adv-x="1024" d="M80 307q0 153 110.5 236.5t309.5 83.5q137 0 315 -39v106q0 318 -315 318q-92 0 -178.5 -25.5t-149.5 -64.5q-11 -5 -18 2l-19 28q-4 13 0 17q69 48 164.5 76t202.5 28q189 0 284 -100t95 -277v-630q0 -12 -11 -15q-165 -71 -370 -71q-185 0 -302.5 87.5t-117.5 239.5z M145 307q0 -122 99 -195t256 -73q166 0 315 57v434q-164 37 -315 37q-172 0 -263.5 -67.5t-91.5 -192.5z" />
<glyph unicode="b" d="M156 66v1386q0 12 12 12h41q12 0 12 -12v-473q145 94 320 94q206 0 319 -110t113 -328v-219q0 -220 -113.5 -328t-320.5 -108q-198 0 -373 71q-10 3 -10 15zM221 94q153 -55 318 -55q366 0 366 377v219q0 194 -92.5 285.5t-273.5 91.5q-172 0 -318 -99v-819z" />
<glyph unicode="c" horiz-adv-x="948" d="M119 358v336q0 163 110 271t297 108q178 0 328 -108q11 -8 4 -19l-18 -28q-12 -8 -19 -3q-134 97 -297 97q-159 0 -249.5 -91t-90.5 -227v-336q0 -137 91 -228t249 -91q170 0 324 115q11 8 18 -2l21 -27q9 -13 -4 -19q-159 -126 -357 -126q-187 0 -297 107.5t-110 270.5z " />
<glyph unicode="d" d="M117 416v219q0 218 113 328t319 110q174 0 319 -94v473q0 12 13 12h39q14 0 14 -12v-1386q0 -12 -10 -15q-175 -71 -373 -71q-207 0 -320.5 108t-113.5 328zM182 416q0 -377 369 -377q164 0 317 55v819q-146 99 -317 99q-369 0 -369 -377v-219z" />
<glyph unicode="e" horiz-adv-x="1038" d="M119 352v332q0 183 111.5 286t295.5 103t296 -103t112 -286v-184q0 -13 -12 -13h-738v-135q0 -144 99.5 -228.5t244.5 -84.5q190 0 349 143q10 7 16 -2l22 -26q11 -11 -2 -17q-169 -157 -387 -157q-169 0 -288 101t-119 271zM184 545h684v139q0 155 -93 241.5t-249 86.5 q-158 0 -250 -86t-92 -242v-139z" />
<glyph unicode="f" horiz-adv-x="626" d="M158 12v1139q0 157 83.5 245.5t229.5 88.5q63 0 125 -6q12 -3 12 -15v-34q0 -14 -16 -11q-58 6 -117 6q-123 0 -187.5 -71.5t-64.5 -202.5v-100h359q4 0 8 -4t4 -9v-34q0 -6 -3.5 -10.5t-8.5 -4.5h-359v-977q0 -12 -12 -12h-41q-12 0 -12 12z" />
<glyph unicode="g" horiz-adv-x="1085" d="M117 446v222q0 205 115 305t317 100q93 0 193.5 -20t177.5 -54q10 -3 10 -14v-1016q0 -174 -100.5 -276.5t-301.5 -102.5q-215 0 -385 164q-6 6 0 17l21 28q7 11 16 2q159 -149 348 -149q171 0 254 84q82 83 82 228v7v144q-149 -76 -315 -76q-203 0 -317.5 104 t-114.5 303zM182 446q0 -177 96.5 -261.5t272.5 -84.5q167 0 313 78v780q-67 24 -155 39t-162 15q-176 0 -270.5 -85.5t-94.5 -258.5v-222z" />
<glyph unicode="h" horiz-adv-x="1122" d="M158 12v1440q0 12 12 12h41q12 0 12 -12v-457q159 78 322 78q205 0 317.5 -104t112.5 -312v-645q0 -12 -12 -12h-39q-15 0 -15 12v645q0 355 -366 355q-170 0 -320 -80v-920q0 -12 -12 -12h-41q-12 0 -12 12z" />
<glyph unicode="i" horiz-adv-x="380" d="M137 1335q0 25 14.5 39.5t38.5 14.5t39 -15t15 -39q0 -23 -15 -37t-39 -14q-23 0 -38 14t-15 37zM158 12v1026q0 15 12 15h41q12 0 12 -15v-1026q0 -12 -12 -12h-41q-12 0 -12 12z" />
<glyph unicode="j" horiz-adv-x="397" d="M-135 -352q0 7 2.5 10t9.5 2q47 -8 100 -8q95 0 146 64t51 212v1110q0 15 12 15h41q13 0 13 -15v-1110q0 -174 -68 -256t-190 -82q-56 0 -105 9q-12 3 -12 16v33zM154 1335q0 25 15 39.5t38 14.5t38 -14.5t15 -39.5q0 -23 -15 -37t-38 -14t-38 14t-15 37z" />
<glyph unicode="k" horiz-adv-x="974" d="M158 12v1440q0 12 12 12h41q12 0 12 -12v-956l623 551q4 6 16 6h56q7 0 9 -5.5t-3 -11.5l-492 -438l514 -582q6 -8 4 -12t-10 -4h-53q-12 0 -17 8l-485 547l-162 -141v-402q0 -12 -12 -12h-41q-12 0 -12 12z" />
<glyph unicode="l" horiz-adv-x="552" d="M150 317v1135q0 12 12 12h41q12 0 12 -12v-1141q0 -270 197 -270q61 0 116 8q13 0 13 -10v-35q0 -13 -13 -16q-70 -8 -118 -8q-260 0 -260 337z" />
<glyph unicode="m" horiz-adv-x="1644" d="M156 12v969q0 9 10 16q165 76 328 76q179 0 278 -102q150 102 328 102q184 0 290.5 -101.5t106.5 -285.5v-674q0 -12 -14 -12h-39q-12 0 -12 12v676q0 155 -87.5 239.5t-246.5 84.5q-163 0 -291 -88q57 -94 57 -236v-676q0 -12 -12 -12h-41q-12 0 -12 12v676 q0 324 -303 324q-132 0 -275 -58v-942q0 -12 -12 -12h-41q-12 0 -12 12z" />
<glyph unicode="n" horiz-adv-x="1120" d="M156 12v967q0 9 10 16q177 78 373 78q207 0 320.5 -105t113.5 -309v-647q0 -12 -12 -12h-39q-15 0 -15 12v645q0 177 -94.5 266t-273.5 89q-164 0 -318 -60v-940q0 -12 -12 -12h-41q-12 0 -12 12z" />
<glyph unicode="o" d="M119 365v323q0 168 113 276.5t313 108.5q202 0 314 -108.5t112 -276.5v-323q0 -169 -112 -277t-314 -108q-201 0 -313.5 108t-112.5 277zM184 365q0 -143 94 -234.5t267 -91.5q174 0 267 91.5t93 234.5v323q0 142 -93 233t-267 91q-173 0 -267 -91t-94 -233v-323z" />
<glyph unicode="p" d="M156 -377v1362q0 10 8 14q178 74 375 74q207 0 320.5 -108.5t113.5 -329.5v-217q0 -218 -113 -328t-319 -110q-181 0 -320 92v-449q0 -12 -12 -12h-41q-12 0 -12 12zM221 139q148 -100 318 -100q366 0 366 379v217q0 379 -366 379q-166 0 -318 -58v-817z" />
<glyph unicode="q" d="M117 418v217q0 221 113.5 329.5t320.5 108.5q195 0 373 -72q10 -3 10 -16v-1362q0 -12 -14 -12h-39q-13 0 -13 12v449q-147 -92 -319 -92q-206 0 -319 110t-113 328zM182 418q0 -379 369 -379q168 0 317 98v821q-156 56 -317 56q-369 0 -369 -379v-217z" />
<glyph unicode="r" horiz-adv-x="763" d="M156 12v975q0 11 10 14q150 72 344 72q88 0 207 -18q12 -2 12 -15v-34q0 -14 -12 -11q-107 17 -203 17q-157 0 -293 -54v-946q0 -12 -12 -12h-41q-12 0 -12 12z" />
<glyph unicode="s" horiz-adv-x="944" d="M84 129l20 31q8 11 17 2q163 -123 356 -123q146 0 234 61t88 172q0 31 -7 57t-22.5 46.5t-31.5 36t-43.5 29t-48 22t-56 17.5t-55.5 13.5t-58 12.5q-60 13 -105 25.5t-99.5 36.5t-89.5 54.5t-59 78t-24 106.5q0 123 101.5 194.5t259.5 71.5q187 0 360 -100q11 -7 4 -17 l-18 -30q-4 -12 -16 -4q-160 90 -332 90q-130 0 -212.5 -55t-82.5 -150q0 -46 19.5 -83t48 -61t75 -43.5t86 -30t96.5 -22.5t92.5 -21t85 -25.5t80 -37t60 -49.5t43.5 -69.5t14 -90.5q0 -133 -101.5 -213.5t-285.5 -80.5q-220 0 -389 131q-12 6 -4 18z" />
<glyph unicode="t" horiz-adv-x="620" d="M150 315v990q0 12 12 12h39q11 0 14 -12v-254h346q4 0 8 -4t4 -9v-34q0 -6 -3.5 -10.5t-8.5 -4.5h-346v-672q0 -130 64 -201t186 -71q61 0 123 6q12 0 12 -12v-35q0 -11 -12 -14q-58 -6 -123 -6q-148 0 -231.5 86.5t-83.5 244.5z" />
<glyph unicode="u" horiz-adv-x="1105" d="M150 393v645q0 15 12 15h41q12 0 12 -15v-645q0 -176 93 -265t267 -89q153 0 310 61v938q0 15 14 15h39q12 0 12 -15v-964q0 -14 -10 -17q-167 -77 -365 -77q-201 0 -313 105.5t-112 307.5z" />
<glyph unicode="v" horiz-adv-x="970" d="M41 1036q-3 6 0.5 11.5t9.5 5.5h43q10 0 15 -11l374 -964l373 964q6 11 16 11h43q6 0 9.5 -5.5t1.5 -11.5l-402 -1026q-7 -10 -16 -10h-51q-12 0 -15 10z" />
<glyph unicode="w" horiz-adv-x="1515" d="M45 1036q-3 17 10 17h43q11 0 15 -11l299 -958h2l307 934q3 10 12 10h49q12 0 15 -10l307 -934l301 958q4 11 12 11h43q6 0 9.5 -5t0.5 -12l-325 -1026q-3 -10 -15 -10h-51q-11 0 -14 10l-305 932h-2l-307 -932q-3 -10 -13 -10h-53q-9 0 -12 10z" />
<glyph unicode="x" horiz-adv-x="960" d="M43 16l395 523l-370 497q-8 17 8 17h49q9 0 14 -9l340 -458l340 458q5 9 15 9h49q7 0 10 -5.5t-2 -11.5l-371 -497l395 -523q5 -6 2 -11t-10 -5h-51q-11 0 -14 8l-363 481l-362 -481q-3 -8 -15 -8h-51q-16 0 -8 16z" />
<glyph unicode="y" horiz-adv-x="1105" d="M147 434v604q0 15 13 15h39q14 0 14 -15v-602q0 -168 97 -252t268 -84q159 0 305 76v862q0 15 12 15h41q12 0 12 -15v-1069q0 -173 -99 -276t-296 -103q-206 0 -383 160q-8 8 0 19l23 26q7 11 16 2q79 -69 160.5 -107t183.5 -38q167 0 249 84q81 83 81 228v7v142 q-142 -74 -312 -74q-195 0 -309.5 100.5t-114.5 294.5z" />
<glyph unicode="z" horiz-adv-x="915" d="M59 12v25q0 7 7 14l679 940h-643q-4 0 -8 4t-4 9v34q0 6 3.5 10.5t8.5 4.5h721q13 0 13 -15v-20q0 -4 -5 -14l-681 -945h692q12 0 12 -12v-35q0 -12 -12 -12h-770q-13 0 -13 12z" />
<glyph unicode="{" horiz-adv-x="503" d="M84 709v41q0 12 10 14q67 14 93 61t26 156v489q0 116 47 171.5t148 56.5h16q12 0 12 -12v-37q0 -13 -12 -13h-12q-73 -1 -104.5 -41.5t-31.5 -126.5v-493q0 -223 -135 -246q135 -23 135 -246v-493q0 -91 32.5 -128.5t105.5 -39.5h10q12 0 12 -12v-37q0 -13 -12 -13h-12 q-105 1 -152 55.5t-47 172.5v489q0 109 -26 156t-93 61q-10 2 -10 15z" />
<glyph unicode="|" horiz-adv-x="438" d="M186 -272v2023q0 12 15 12h37q14 0 14 -12v-2023q0 -13 -14 -13h-37q-15 0 -15 13z" />
<glyph unicode="}" horiz-adv-x="503" d="M68 -190q0 12 12 12h10q73 2 105 39.5t32 128.5v493q0 223 135 246q-135 23 -135 246v493q0 86 -31.5 126.5t-103.5 41.5h-12q-12 0 -12 13v37q0 12 12 12h16q101 -1 148 -56.5t47 -171.5v-489q0 -109 26 -156t93 -61q10 -2 10 -14v-41q0 -13 -10 -15q-67 -14 -93 -61 t-26 -156v-489q0 -118 -47 -172.5t-152 -55.5h-12q-12 0 -12 13v37z" />
<glyph unicode="~" horiz-adv-x="1122" d="M166 688q-11 11 0 17q85 79 194 79q80 0 215 -47q127 -43 187 -43q92 0 158 60q10 8 18 0l27 -23q11 -9 2 -18q-94 -80 -203 -80q-16 0 -31.5 1.5t-31.5 4.5t-28 5.5t-30 8.5l-27 9t-29.5 10.5t-27.5 9.5q-138 43 -194 43q-90 0 -154 -61q-11 -7 -18 0z" />
<glyph unicode="&#xa1;" horiz-adv-x="411" d="M150 1020q0 25 15 40t40 15t40 -15t15 -40t-15 -41t-40 -16t-40 16t-15 41zM172 -57l2 811q0 12 12 12h37q15 0 15 -12l2 -811v-326q0 -12 -13 -12h-43q-12 0 -12 12v326z" />
<glyph unicode="&#xa2;" horiz-adv-x="1024" d="M139 358v336q0 156 102.5 262t276.5 115v146q0 12 12 12h29q12 0 12 -12v-144q165 -6 303 -108q12 -9 5 -19l-19 -31q-9 -6 -18 -2q-133 99 -297 99q-159 0 -249.5 -91t-90.5 -227v-336q0 -137 91 -228t249 -91q170 0 323 117q12 9 19 -2l20 -29q9 -13 -4 -19 q-147 -120 -332 -126v-130q0 -12 -12 -12h-29q-12 0 -12 12v130q-174 9 -276.5 115.5t-102.5 262.5z" />
<glyph unicode="&#xa3;" horiz-adv-x="1112" d="M104 12v35q0 12 13 12q139 9 139 220v477h-139q-13 0 -13 12v35q0 12 13 12h139v309q0 156 99 258.5t274 102.5q101 0 192 -33.5t158 -89.5q9 -9 2 -19l-18 -26q-9 -9 -19 -2q-153 110 -317 110q-149 0 -229.5 -85.5t-80.5 -215.5v-309h474q12 0 12 -12v-35 q0 -12 -12 -12h-474v-477q0 -172 -84 -220h756q6 0 10.5 -3.5t4.5 -8.5v-35q0 -12 -15 -12h-872q-13 0 -13 12z" />
<glyph unicode="&#xa4;" horiz-adv-x="1304" d="M162 707q0 200 114 329l-100 103q-9 9 0 18l23 23q5 4 11 4t9 -4l100 -101q138 119 334 119q197 0 332 -119l100 101q11 10 21 0l22 -23q3 -3 3 -9t-3 -9l-100 -103q117 -133 117 -329q0 -198 -117 -334l100 -101q7 -11 0 -20l-22 -23q-12 -12 -21 0l-100 101 q-136 -117 -332 -117q-198 0 -334 117l-100 -101q-3 -5 -9 -5t-11 5l-23 23q-7 10 0 20l100 101q-114 129 -114 334zM221 707q0 -195 121 -315t311 -120q188 0 309.5 122t120.5 313q-1 187 -123 309.5t-307 122.5q-190 0 -311 -121.5t-121 -310.5z" />
<glyph unicode="&#xa5;" horiz-adv-x="1126" d="M57 1448q-6 16 11 16h47q9 0 16 -10l432 -809l434 809q3 10 17 10h47q18 0 8 -16l-451 -827h252q6 0 10.5 -4.5t4.5 -10.5v-31q0 -5 -4.5 -8.5t-10.5 -3.5h-274v-174h274q15 0 15 -12v-31q0 -12 -15 -12h-274v-322q0 -12 -12 -12h-41q-13 0 -13 12v322h-272q-12 0 -12 12 v31q0 12 12 12h272v174h-272q-12 0 -12 12v31q0 15 12 15h250z" />
<glyph unicode="&#xa6;" horiz-adv-x="446" d="M190 -272v833q0 12 15 12h37q14 0 14 -12v-833q0 -13 -14 -13h-37q-15 0 -15 13zM190 918v833q0 12 15 12h37q14 0 14 -12v-833q0 -13 -14 -13h-37q-15 0 -15 13z" />
<glyph unicode="&#xa7;" horiz-adv-x="1030" d="M113 604q0 126 80.5 202t222.5 91q-234 114 -234 303q0 130 96.5 207.5t247.5 77.5q156 0 318 -101q13 -7 4 -16l-19 -29q-5 -10 -18 -4q-56 30 -90.5 46t-87.5 30t-107 14q-129 0 -203.5 -62t-74.5 -163q0 -54 23.5 -99.5t63 -78t90.5 -61.5t107.5 -54t113 -51 t107.5 -58.5t90.5 -70t63 -90t23.5 -115.5q0 -109 -66.5 -190.5t-173.5 -98.5q82 -39 133 -114t51 -172q0 -142 -101.5 -232t-266.5 -90q-215 0 -371 170q-7 10 2 19l23 26q8 8 18 -2q74 -72 147 -111.5t179 -39.5q139 0 223 70.5t84 191.5q0 61 -24 109t-64.5 80t-92.5 58 t-110 46.5t-116 42t-110 49.5t-92.5 63t-64.5 87.5t-24 119.5zM178 606q0 -54 22 -96.5t50.5 -71t96.5 -60.5t118.5 -51t157.5 -55q111 9 177 75.5t66 174.5q0 27 -6 52t-13.5 44.5t-26 40.5t-32 35.5t-44 33.5t-49 30.5t-60 31.5t-65 30.5t-74.5 33.5q-134 3 -226 -63 t-92 -185z" />
<glyph unicode="&#xa8;" horiz-adv-x="481" d="M16 1335q0 25 14.5 39.5t37.5 14.5t37 -14.5t14 -39.5q0 -23 -14 -37t-37 -14t-37.5 14t-14.5 37zM369 1335q0 25 14.5 39.5t38.5 14.5q23 0 37 -14.5t14 -39.5q0 -23 -14 -37t-37 -14t-38 14t-15 37z" />
<glyph unicode="&#xa9;" horiz-adv-x="1736" d="M123 723q0 141 38 263.5t106.5 213t161.5 155.5t205 97.5t236 32.5q154 0 289 -52t236.5 -147.5t160 -241t58.5 -321.5q0 -173 -58.5 -315t-160 -234.5t-236.5 -143t-289 -50.5q-155 0 -290.5 50.5t-237.5 143t-160.5 234.5t-58.5 315zM172 723q0 -134 36 -247.5 t100 -195.5t151.5 -139.5t191.5 -85.5t219 -28q144 0 269 45.5t220.5 130.5t150.5 219t55 301q0 173 -55 310.5t-150.5 225t-220.5 133.5t-269 46q-143 0 -268.5 -46.5t-221.5 -134t-152 -225.5t-56 -309zM578 573v295q0 109 78.5 185.5t201.5 76.5q147 2 248 -102 q6 -9 2 -18l-21 -21q-7 -10 -18 -2q-87 90 -211 88q-98 -1 -160.5 -62.5t-62.5 -144.5v-295q0 -83 62.5 -144.5t164.5 -61.5q136 0 228 92q11 8 18 -2l16 -23q5 -11 0 -16q-108 -112 -262 -109q-126 1 -205 78t-79 186z" />
<glyph unicode="&#xab;" horiz-adv-x="968" d="M82 588q-3 8 0 16l295 434q3 9 14 9h47q6 0 8 -5.5t-2 -11.5l-294 -434l294 -434q4 -6 2 -11.5t-8 -5.5h-47q-11 0 -14 9zM504 588q-3 8 0 16l295 434q3 9 14 9h47q6 0 8 -5.5t-2 -11.5l-295 -434l295 -434q4 -6 2 -11.5t-8 -5.5h-47q-11 0 -14 9z" />
<glyph unicode="&#xac;" horiz-adv-x="1122" d="M127 780v39q0 12 12 12h844q12 0 12 -12v-366q0 -13 -12 -13h-37q-14 0 -14 13v315h-793q-12 0 -12 12z" />
<glyph unicode="&#xad;" horiz-adv-x="819" d="M143 610v37q0 12 13 12h508q12 0 12 -12v-37q0 -12 -12 -12h-508q-13 0 -13 12z" />
<glyph unicode="&#xae;" d="M119 1059q0 195 122.5 310.5t303.5 115.5t303.5 -115.5t122.5 -310.5q0 -131 -58.5 -229.5t-154 -147.5t-213.5 -49t-213.5 49t-154 147.5t-58.5 229.5zM160 1059q0 -182 109.5 -283.5t277.5 -101.5q166 0 274.5 101.5t108.5 283.5q0 183 -108.5 285t-274.5 102 q-109 0 -195.5 -43t-139 -132t-52.5 -212zM410 874v388q0 14 12 14h141q68 0 107 -33.5t39 -93.5q0 -55 -33.5 -85.5t-95.5 -33.5l125 -153q5 -6 2.5 -10.5t-9.5 -4.5h-22q-11 0 -14 8l-132 158h-81v-154q0 -12 -13 -12h-14q-12 0 -12 12zM449 1067h114q105 0 105 82 q0 41 -27.5 63.5t-77.5 22.5h-114v-168z" />
<glyph unicode="&#xaf;" horiz-adv-x="509" d="M0 1343v29q0 14 12 14h480q14 0 14 -14v-29q0 -14 -14 -14h-480q-12 0 -12 14z" />
<glyph unicode="&#xb0;" horiz-adv-x="669" d="M104 1255q0 106 65 168t167 62q100 0 164.5 -62t64.5 -168q0 -102 -65 -164.5t-164 -62.5q-102 0 -167 61.5t-65 165.5zM160 1255q0 -86 49.5 -132t126.5 -46q78 0 126 46t48 132t-48 132.5t-126 46.5q-77 0 -126.5 -46.5t-49.5 -132.5z" />
<glyph unicode="&#xb1;" horiz-adv-x="1122" d="M127 150v38q0 13 12 13h844q12 0 12 -13v-38q0 -13 -12 -13h-844q-12 0 -12 13zM127 764v37q0 14 12 14h389v385q0 14 15 14h39q12 0 12 -14v-385h389q12 0 12 -14v-37q0 -12 -12 -12h-389v-392q0 -12 -12 -12h-39q-15 0 -15 12v392h-389q-12 0 -12 12z" />
<glyph unicode="&#xb2;" horiz-adv-x="630" d="M63 852v16q0 12 7 19l172 180q141 149 196.5 228t55.5 159q0 65 -48 104t-133 39q-108 0 -202 -102q-9 -9 -19 0l-12 14q-5 11 0 21q103 115 235 115q109 0 168.5 -55.5t59.5 -133.5q0 -92 -61.5 -181.5t-205.5 -238.5l-141 -149h414q12 0 12 -13v-22q0 -12 -12 -12h-473 q-13 0 -13 12z" />
<glyph unicode="&#xb3;" horiz-adv-x="638" d="M61 956q-7 10 0 17l15 14q10 8 18 0q91 -110 221 -110q89 0 145 61t56 149q0 79 -51.5 132t-149.5 53q-37 0 -77 -4q-13 0 -15 6l-6 12q-3 9 4 19l256 284h-373q-12 0 -12 13v20q0 12 12 12h437q10 0 10 -10v-12q0 -7 -8 -15l-258 -288q18 2 49 2q103 0 166 -64t63 -164 q0 -104 -71 -179t-175 -75q-151 0 -256 127z" />
<glyph unicode="&#xb4;" horiz-adv-x="303" d="M3 1231.5q-3 4.5 1 11.5l170 275q4 8 14 8h52q16 0 6 -17l-185 -274q-8 -8 -16 -8h-31q-8 0 -11 4.5z" />
<glyph unicode="&#xb6;" horiz-adv-x="1232" d="M66 1087q0 166 108.5 271.5t296.5 105.5h549q12 0 12 -12v-1724q0 -13 -12 -13h-39q-12 0 -12 13v1673h-459v-1673q0 -13 -14 -13h-37q-13 0 -13 13v983q-175 0 -277.5 107t-102.5 269z" />
<glyph unicode="&#xb7;" horiz-adv-x="397" d="M143 633q0 25 15.5 40t40.5 15t40 -15t15 -40t-15 -40t-40 -15t-40.5 15t-15.5 40z" />
<glyph unicode="&#xb8;" horiz-adv-x="339" d="M4 -358q0 13 14 10q62 -19 113 -19q70 0 107.5 29t37.5 80q0 52 -38 75.5t-129 24.5q-12 0 -17 8q-2 2 -2 7t2 8l49 131q3 10 13 10h26q6 0 9.5 -4t0.5 -10l-40 -113q88 0 137 -35.5t49 -103.5q0 -70 -54 -113t-147 -43q-59 0 -121 19q-10 5 -10 16v23z" />
<glyph unicode="&#xb9;" horiz-adv-x="401" d="M45 1493q-5 9 6 16l172 121q4 4 15 4h28q15 0 15 -12v-770q0 -12 -15 -12h-22q-13 0 -13 12v731l-155 -108q-5 -4 -10.5 -3.5t-8.5 5.5z" />
<glyph unicode="&#xbb;" horiz-adv-x="968" d="M100.5 150.5q-2.5 5.5 1.5 11.5l295 434l-295 434q-4 6 -1.5 11.5t8.5 5.5h47q11 0 14 -9l295 -434q3 -8 0 -16l-295 -434q-3 -9 -14 -9h-47q-6 0 -8.5 5.5zM522 150.5q-2 5.5 2 11.5l295 434l-295 434q-4 6 -2 11.5t8 5.5h48q11 0 14 -9l295 -434q3 -8 0 -16l-295 -434 q-3 -9 -14 -9h-48q-6 0 -8 5.5z" />
<glyph unicode="&#xbc;" horiz-adv-x="1613" d="M82 1321q-3 9 6 18l172 119q4 4 14 4h29q14 0 14 -12v-770q0 -12 -14 -12h-22q-5 0 -9 4t-4 8v731l-155 -108q-5 -4 -10.5 -3.5t-8.5 5.5zM119 16l1179 1440q3 8 17 8h26q8 0 10.5 -5t-1.5 -11l-1180 -1440q-3 -8 -14 -8h-29q-16 0 -8 16zM1020 217v10q0 5 4 17l307 542 q3 9 15 9h22q8 0 11 -4.5t-1 -12.5l-299 -528h336v190q0 15 12 15h23q12 0 12 -15v-190h72q12 0 12 -12v-21q0 -14 -12 -14h-72v-191q0 -12 -12 -12h-23q-12 0 -12 12v191h-383q-12 0 -12 14z" />
<glyph unicode="&#xbd;" horiz-adv-x="1716" d="M74 1321q-3 9 6 18l172 119q4 4 14 4h29q14 0 14 -12v-770q0 -12 -14 -12h-23q-4 0 -8 4t-4 8v731l-156 -108q-10 -10 -18 2zM142.5 5q-2.5 5 0.5 11l1180 1440q3 8 16 8h27q8 0 10 -5t-2 -11l-1179 -1440q-3 -8 -15 -8h-28q-7 0 -9.5 5zM1128 12v17q0 11 7 18l172 180 q141 149 196.5 228t55.5 159q0 66 -48 105t-133 39q-107 0 -202 -103q-10 -9 -19 0l-12 15q-5 10 0 20q103 115 235 115q109 0 168.5 -55.5t59.5 -133.5q0 -92 -61.5 -181t-205.5 -238l-141 -150h414q12 0 12 -12v-23q0 -12 -12 -12h-473q-13 0 -13 12z" />
<glyph unicode="&#xbe;" horiz-adv-x="1765" d="M94 786q-7 10 0 17l15 14q10 8 18 0q91 -110 221 -110q89 0 145 61.5t56 149.5q0 79 -51.5 131.5t-149.5 52.5q-38 0 -78 -4q-12 0 -14 6l-6 12q-3 9 4 19l256 284h-373q-12 0 -12 13v20q0 12 12 12h436q11 0 11 -10v-12q0 -6 -9 -15l-258 -288q18 2 50 2q103 0 166 -64 t63 -164q0 -104 -71 -179t-175 -75q-151 0 -256 127zM279 16l1179 1440q3 8 17 8h26q7 0 10 -5t-2 -11l-1179 -1440q-3 -8 -15 -8h-28q-16 0 -8 16zM1169 217v10q0 2 5 17l307 542q3 9 14 9h23q8 0 11 -4.5t-1 -12.5l-299 -528h336v190q0 15 12 15h22q13 0 13 -15v-190h71 q13 0 13 -12v-21q0 -14 -13 -14h-71v-191q0 -12 -13 -12h-22q-12 0 -12 12v191h-383q-13 0 -13 14z" />
<glyph unicode="&#xbf;" horiz-adv-x="903" d="M82 -31q0 72 20.5 132t54 101t73.5 78t79.5 71.5t73 71.5t54 88.5t20.5 113.5v131q0 12 12 12h39q14 0 14 -12v-138q0 -66 -20.5 -121t-54 -94t-73.5 -74.5t-79.5 -71t-73 -74.5t-54 -93.5t-20.5 -120.5q0 -63 18 -119t55 -102.5t100.5 -74t146.5 -27.5q192 0 342 157 q3 5 8 5t8 -7l23 -28q7 -11 -2 -17q-152 -170 -379 -170q-182 0 -283.5 105.5t-101.5 277.5zM434 1020q0 25 15 40t40 15t39.5 -15t14.5 -40t-14.5 -40t-39.5 -15t-40 15t-15 40z" />
<glyph unicode="&#xc0;" horiz-adv-x="1206" d="M23 14l538 1440q3 10 12 10h58q11 0 14 -10l539 -1440q4 -14 -10 -14h-48q-7 0 -14 10l-166 449h-686l-168 -449q-3 -10 -12 -10h-47q-13 0 -10 14zM283 522h641l-318 858h-6zM377 1908.5q2 4.5 10 4.5h57q12 0 15 -8l219 -273q5 -6 3 -11t-9 -5h-37q-12 0 -17 8 l-237 274q-6 6 -4 10.5z" />
<glyph unicode="&#xc1;" horiz-adv-x="1206" d="M23 14l538 1440q3 10 12 10h58q11 0 14 -10l539 -1440q4 -14 -10 -14h-48q-7 0 -14 10l-166 449h-686l-168 -449q-3 -10 -12 -10h-47q-13 0 -10 14zM283 522h641l-318 858h-6zM534 1621q-2 5 3 11l219 273q3 8 14 8h57q8 0 10.5 -4.5t-3.5 -10.5l-238 -274q-5 -8 -16 -8 h-37q-7 0 -9 5z" />
<glyph unicode="&#xc2;" horiz-adv-x="1206" d="M23 14l538 1440q3 10 12 10h58q11 0 14 -10l539 -1440q4 -14 -10 -14h-48q-7 0 -14 10l-166 449h-686l-168 -449q-3 -10 -12 -10h-47q-13 0 -10 14zM283 522h641l-318 858h-6zM295 1621q-3 5 2 11l266 273q5 8 17 8h45q8 0 16 -8l264 -273q6 -6 4 -11t-10 -5h-43 q-10 0 -18 8l-236 234l-235 -234q-8 -8 -19 -8h-43q-7 0 -10 5z" />
<glyph unicode="&#xc3;" horiz-adv-x="1206" d="M23 14l538 1440q3 10 12 10h58q11 0 14 -10l539 -1440q4 -14 -10 -14h-48q-7 0 -14 10l-166 449h-686l-168 -449q-3 -10 -12 -10h-47q-13 0 -10 14zM283 522h641l-318 858h-6zM324 1729q16 43 54 73.5t89 30.5q10 0 20 -1.5t18 -3t19.5 -5.5t17 -6t18 -8t16 -7.5t18 -9 t16.5 -8.5q8 -4 30.5 -15t33 -15.5t28.5 -9.5t33 -5q59 0 96 76q6 9 17 6l24 -13q11 -7 9 -16q-14 -44 -53.5 -76.5t-86.5 -32.5q-53 0 -139 48q-85 47 -133 47q-60 0 -96 -74q-5 -10 -17 -6l-24 12q-11 6 -8 19z" />
<glyph unicode="&#xc4;" horiz-adv-x="1206" d="M23 14l538 1440q3 10 12 10h58q11 0 14 -10l539 -1440q4 -14 -10 -14h-48q-7 0 -14 10l-166 449h-686l-168 -449q-3 -10 -12 -10h-47q-13 0 -10 14zM283 522h641l-318 858h-6zM346 1763q0 23 14 37.5t37 14.5q25 0 39.5 -14.5t14.5 -37.5q0 -25 -14.5 -39t-39.5 -14 q-23 0 -37 14t-14 39zM754 1763q0 23 14 37.5t37 14.5q25 0 39 -14.5t14 -37.5q0 -25 -14 -39t-39 -14q-23 0 -37 14t-14 39z" />
<glyph unicode="&#xc5;" horiz-adv-x="1206" d="M23 14l538 1440q3 10 12 10h58q11 0 14 -10l539 -1440q4 -14 -10 -14h-48q-7 0 -14 10l-166 449h-686l-168 -449q-3 -10 -12 -10h-47q-13 0 -10 14zM283 522h641l-318 858h-6zM403 1769q0 88 55 139.5t144 51.5q90 0 144.5 -51.5t54.5 -139.5t-54 -138t-145 -50 q-89 0 -144 50.5t-55 137.5zM455 1769q0 -66 39 -102.5t110 -36.5q69 0 107.5 36.5t38.5 102.5t-38.5 104t-107.5 38q-70 0 -109.5 -38t-39.5 -104z" />
<glyph unicode="&#xc6;" horiz-adv-x="1703" d="M14 16l787 1440q5 8 16 8h750q12 0 12 -12v-39q0 -12 -12 -12h-654v-625h621q12 0 12 -12v-39q0 -12 -12 -12h-621v-650h666q14 0 14 -12v-39q0 -12 -14 -12h-721q-12 0 -12 12v441h-520l-240 -443q-3 -10 -14 -10h-47q-17 0 -11 16zM360 516h486v817l2 72z" />
<glyph unicode="&#xc7;" horiz-adv-x="1175" d="M150 465v534q0 219 130.5 352.5t360.5 133.5q243 0 432 -152q6 -3 6.5 -8t-4.5 -8l-22 -33q-7 -11 -19 -2q-175 139 -395 139q-204 0 -313 -116t-109 -306v-534q0 -190 110 -306t316 -116q240 0 424 158q9 9 16 -2l25 -33q7 -11 -4 -19q-177 -157 -434 -167l-41 -103 q90 0 140 -34.5t50 -102.5q0 -71 -55.5 -114.5t-149.5 -43.5q-64 0 -122 21q-11 3 -11 14v25q0 13 15 10q62 -21 116 -21q71 0 109.5 29t40.5 82q0 50 -40.5 73.5t-135.5 24.5q-12 0 -15 8q-6 6 -2 15l45 117q-220 9 -342 140.5t-122 344.5z" />
<glyph unicode="&#xc8;" horiz-adv-x="1153" d="M199 12v1440q0 12 14 12h799q12 0 12 -12v-39q0 -12 -12 -12h-744v-623h701q14 0 14 -12v-39q0 -12 -14 -12h-701v-652h774q13 0 13 -12v-39q0 -12 -13 -12h-829q-14 0 -14 12zM399.5 1908.5q2.5 4.5 10.5 4.5h57q11 0 14 -8l219 -273q5 -6 3 -11t-9 -5h-37q-11 0 -16 8 l-238 274q-6 6 -3.5 10.5z" />
<glyph unicode="&#xc9;" horiz-adv-x="1153" d="M199 12v1440q0 12 14 12h799q12 0 12 -12v-39q0 -12 -12 -12h-744v-623h701q14 0 14 -12v-39q0 -12 -14 -12h-701v-652h774q13 0 13 -12v-39q0 -12 -13 -12h-829q-14 0 -14 12zM536 1621q-2 5 3 11l219 273q3 8 14 8h57q8 0 10.5 -4.5t-3.5 -10.5l-238 -274q-5 -8 -16 -8 h-37q-7 0 -9 5z" />
<glyph unicode="&#xca;" horiz-adv-x="1153" d="M199 12v1440q0 12 14 12h799q12 0 12 -12v-39q0 -12 -12 -12h-744v-623h701q14 0 14 -12v-39q0 -12 -14 -12h-701v-652h774q13 0 13 -12v-39q0 -12 -13 -12h-829q-14 0 -14 12zM320 1621q-2 5 2 11l266 273q5 8 16 8h45q9 0 17 -8l264 -273q6 -6 4 -11t-10 -5h-43 q-11 0 -19 8l-235 234l-236 -234q-8 -8 -18 -8h-43q-8 0 -10 5z" />
<glyph unicode="&#xcb;" horiz-adv-x="1153" d="M199 12v1440q0 12 14 12h799q12 0 12 -12v-39q0 -12 -12 -12h-744v-623h701q14 0 14 -12v-39q0 -12 -14 -12h-701v-652h774q13 0 13 -12v-39q0 -12 -13 -12h-829q-14 0 -14 12zM375 1763q0 23 14 37.5t37 14.5q24 0 38.5 -14.5t14.5 -37.5q0 -25 -14 -39t-39 -14 q-23 0 -37 14t-14 39zM782 1763q0 23 14.5 37.5t37.5 14.5q24 0 38.5 -14.5t14.5 -37.5q0 -25 -14 -39t-39 -14q-24 0 -38 14t-14 39z" />
<glyph unicode="&#xcc;" horiz-adv-x="466" d="M10 1908.5q2 4.5 10 4.5h58q11 0 14 -8l219 -273q5 -6 3 -11t-9 -5h-37q-11 0 -16 8l-238 274q-6 6 -4 10.5zM199 12v1440q0 12 14 12h43q12 0 12 -12v-1440q0 -12 -12 -12h-43q-14 0 -14 12z" />
<glyph unicode="&#xcd;" horiz-adv-x="466" d="M167 1621q-2 5 3 11l219 273q3 8 14 8h58q8 0 10 -4.5t-4 -10.5l-238 -274q-5 -8 -16 -8h-37q-7 0 -9 5zM199 12v1440q0 12 14 12h43q12 0 12 -12v-1440q0 -12 -12 -12h-43q-14 0 -14 12z" />
<glyph unicode="&#xce;" horiz-adv-x="466" d="M-22 1621q-2 5 2 11l210 273q3 8 15 8h45q13 0 16 -8l230 -273q4 -8 1.5 -12t-10.5 -4h-41q-11 0 -16 8l-203 238l-184 -238q-3 -8 -14 -8h-41q-8 0 -10 5zM197 12v1440q0 12 14 12h43q12 0 12 -12v-1440q0 -12 -12 -12h-43q-14 0 -14 12z" />
<glyph unicode="&#xcf;" horiz-adv-x="464" d="M14 1763q0 23 14.5 37.5t37.5 14.5t38 -14.5t15 -37.5q0 -24 -14.5 -38.5t-38.5 -14.5t-38 14t-14 39zM199 12v1440q0 12 12 12h43q12 0 12 -12v-1440q0 -12 -12 -12h-43q-12 0 -12 12zM348 1763q0 23 14 37.5t37 14.5q25 0 39.5 -14.5t14.5 -37.5q0 -25 -14.5 -39 t-39.5 -14q-23 0 -37 14t-14 39z" />
<glyph unicode="&#xd0;" horiz-adv-x="1392" d="M27 752v32q0 13 12 13h205v655q0 12 12 12h485q233 0 368.5 -136.5t135.5 -373.5v-450q0 -237 -136 -370.5t-368 -133.5h-485q-12 0 -12 12v727h-205q-12 0 -12 13zM313 66h428q203 0 319 114t116 324v450q0 211 -116.5 329t-318.5 118h-428v-604h408q12 0 12 -13v-32 q0 -13 -12 -13h-408v-673z" />
<glyph unicode="&#xd1;" horiz-adv-x="1431" d="M199 12v1440q0 12 14 12h51q12 0 15 -8l886 -1350l-2 1346q0 12 15 12h41q14 0 14 -12v-1440q0 -12 -14 -12h-50q-13 0 -16 8l-887 1346l2 -1342q0 -12 -12 -12h-43q-14 0 -14 12zM438 1729q16 43 54.5 73.5t89.5 30.5q10 0 20 -1.5t18 -3t19.5 -5.5t17 -6t18 -8t16 -7.5 t18 -9t16.5 -8.5q8 -4 30.5 -15t33 -15.5t28.5 -9.5t33 -5q59 0 96 76q6 9 17 6l24 -13q10 -7 8 -16q-14 -44 -53 -76.5t-86 -32.5q-53 0 -139 48q-85 47 -133 47q-61 0 -97 -74q-5 -10 -16 -6l-25 12q-11 6 -8 19z" />
<glyph unicode="&#xd2;" horiz-adv-x="1361" d="M147 459v530q0 222 146.5 359t388.5 137q241 0 386.5 -137t145.5 -359v-530q0 -209 -147.5 -344t-384.5 -135q-239 0 -387 135t-148 344zM215 459q0 -182 128 -298t339 -116q210 0 337.5 116t127.5 298v530q0 195 -126.5 313.5t-338.5 118.5q-214 0 -340.5 -118.5 t-126.5 -313.5v-530zM457 1908.5q2 4.5 10 4.5h57q12 0 15 -8l219 -273q5 -6 3 -11t-9 -5h-37q-12 0 -17 8l-237 274q-6 6 -4 10.5z" />
<glyph unicode="&#xd3;" horiz-adv-x="1361" d="M147 459v530q0 222 146.5 359t388.5 137q241 0 386.5 -137t145.5 -359v-530q0 -209 -147.5 -344t-384.5 -135q-239 0 -387 135t-148 344zM215 459q0 -182 128 -298t339 -116q210 0 337.5 116t127.5 298v530q0 195 -126.5 313.5t-338.5 118.5q-214 0 -340.5 -118.5 t-126.5 -313.5v-530zM613.5 1621q-2.5 5 2.5 11l220 273q3 8 14 8h57q8 0 10 -4.5t-4 -10.5l-237 -274q-5 -8 -17 -8h-36q-7 0 -9.5 5z" />
<glyph unicode="&#xd4;" horiz-adv-x="1361" d="M147 459v530q0 222 146.5 359t388.5 137q241 0 386.5 -137t145.5 -359v-530q0 -209 -147.5 -344t-384.5 -135q-239 0 -387 135t-148 344zM215 459q0 -182 128 -298t339 -116q210 0 337.5 116t127.5 298v530q0 195 -126.5 313.5t-338.5 118.5q-214 0 -340.5 -118.5 t-126.5 -313.5v-530zM375 1621q-3 5 2 11l266 273q5 8 16 8h46q8 0 16 -8l264 -273q6 -6 4 -11t-10 -5h-43q-10 0 -18 8l-236 234l-236 -234q-8 -8 -18 -8h-43q-7 0 -10 5z" />
<glyph unicode="&#xd5;" horiz-adv-x="1361" d="M147 459v530q0 222 146.5 359t388.5 137q241 0 386.5 -137t145.5 -359v-530q0 -209 -147.5 -344t-384.5 -135q-239 0 -387 135t-148 344zM215 459q0 -182 128 -298t339 -116q210 0 337.5 116t127.5 298v530q0 195 -126.5 313.5t-338.5 118.5q-214 0 -340.5 -118.5 t-126.5 -313.5v-530zM403 1729q16 43 54.5 73.5t89.5 30.5q10 0 20 -1.5t18 -3t19.5 -5.5t17 -6t18 -8t16 -7.5t18 -9t16.5 -8.5q8 -4 30.5 -15t33 -15.5t28.5 -9.5t33 -5q59 0 96 76q6 9 17 6l24 -13q11 -7 9 -16q-14 -44 -53.5 -76.5t-86.5 -32.5q-53 0 -139 48 q-85 47 -133 47q-60 0 -96 -74q-5 -10 -17 -6l-24 12q-12 6 -9 19z" />
<glyph unicode="&#xd6;" horiz-adv-x="1361" d="M147 459v530q0 222 146.5 359t388.5 137q241 0 386.5 -137t145.5 -359v-530q0 -209 -147.5 -344t-384.5 -135q-239 0 -387 135t-148 344zM215 459q0 -182 128 -298t339 -116q210 0 337.5 116t127.5 298v530q0 195 -126.5 313.5t-338.5 118.5q-214 0 -340.5 -118.5 t-126.5 -313.5v-530zM426 1763q0 23 14 37.5t37 14.5q25 0 39 -14.5t14 -37.5q0 -25 -14 -39t-39 -14q-23 0 -37 14t-14 39zM834 1763q0 23 14 37.5t37 14.5q25 0 39 -14.5t14 -37.5q0 -25 -14 -39t-39 -14q-23 0 -37 14t-14 39z" />
<glyph unicode="&#xd7;" horiz-adv-x="1122" d="M158 314.5q0 6.5 4 9.5l356 358l-356 354q-10 10 0 21l24 24q9 9 21 0l356 -356l357 356q3 3 9 3t9 -3l25 -24q11 -11 0 -21l-355 -354l355 -358q5 -3 5 -9.5t-5 -9.5l-25 -26q-9 -9 -18 0l-357 358l-356 -358q-11 -7 -21 0l-24 26q-4 3 -4 9.5z" />
<glyph unicode="&#xd8;" horiz-adv-x="1378" d="M147 463v526q0 220 148 358t393 138q183 0 318 -80l84 160q2 10 14 10h37q18 0 8 -16l-96 -187q86 -66 132 -164.5t46 -218.5v-526q0 -208 -150 -344.5t-393 -136.5q-175 0 -315 81l-82 -159q-3 -10 -15 -10h-36q-17 0 -11 16l97 184q-87 66 -133 161t-46 208zM217 463 q0 -186 141 -305l617 1188q-118 73 -287 73q-215 0 -343 -119t-128 -311v-526zM406 123q123 -76 282 -76q213 0 343 118t130 298v526q0 201 -141 320z" />
<glyph unicode="&#xd9;" horiz-adv-x="1378" d="M186 494v958q0 12 15 12h43q12 0 12 -12v-956q0 -207 112.5 -328t319.5 -121t320.5 121.5t113.5 327.5v956q0 12 13 12h43q14 0 14 -12v-958q0 -231 -134 -370.5t-370 -139.5q-234 0 -368 139.5t-134 370.5zM475 1908.5q2 4.5 10 4.5h58q11 0 14 -8l219 -273q5 -6 3 -11 t-9 -5h-37q-11 0 -16 8l-238 274q-6 6 -4 10.5z" />
<glyph unicode="&#xda;" horiz-adv-x="1378" d="M186 494v958q0 12 15 12h43q12 0 12 -12v-956q0 -207 112.5 -328t319.5 -121t320.5 121.5t113.5 327.5v956q0 12 13 12h43q14 0 14 -12v-958q0 -231 -134 -370.5t-370 -139.5q-234 0 -368 139.5t-134 370.5zM593 1621q-2 5 3 11l219 273q3 8 14 8h58q8 0 10 -4.5 t-4 -10.5l-238 -274q-5 -8 -16 -8h-37q-7 0 -9 5z" />
<glyph unicode="&#xdb;" horiz-adv-x="1378" d="M186 494v958q0 12 15 12h43q12 0 12 -12v-956q0 -207 112.5 -328t319.5 -121t320.5 121.5t113.5 327.5v956q0 12 13 12h43q14 0 14 -12v-958q0 -231 -134 -370.5t-370 -139.5q-234 0 -368 139.5t-134 370.5zM383 1621q-3 5 2 11l266 273q5 8 17 8h45q8 0 16 -8l264 -273 q6 -6 4 -11t-10 -5h-43q-10 0 -18 8l-236 234l-235 -234q-8 -8 -19 -8h-43q-7 0 -10 5z" />
<glyph unicode="&#xdc;" horiz-adv-x="1378" d="M186 494v958q0 12 15 12h43q12 0 12 -12v-956q0 -207 112.5 -328t319.5 -121t320.5 121.5t113.5 327.5v956q0 12 13 12h43q14 0 14 -12v-958q0 -231 -134 -370.5t-370 -139.5q-234 0 -368 139.5t-134 370.5zM434 1763q0 23 14 37.5t37 14.5q25 0 39.5 -14.5t14.5 -37.5 q0 -25 -14.5 -39t-39.5 -14q-23 0 -37 14t-14 39zM842 1763q0 23 14 37.5t37 14.5q25 0 39 -14.5t14 -37.5q0 -25 -14 -39t-39 -14q-23 0 -37 14t-14 39z" />
<glyph unicode="&#xdd;" horiz-adv-x="1097" d="M20 1448q-6 16 11 16h49q11 0 14 -8l455 -809l455 809q3 8 16 8h47q16 0 10 -16l-493 -868v-568q0 -12 -15 -12h-43q-12 0 -12 12v568zM460 1621q-2 5 3 11l219 273q3 8 14 8h58q8 0 10 -4.5t-4 -10.5l-238 -274q-5 -8 -16 -8h-37q-7 0 -9 5z" />
<glyph unicode="&#xde;" horiz-adv-x="1280" d="M199 12v1440q0 12 14 12h43q12 0 12 -12v-246h398q239 0 369 -118.5t130 -327.5q0 -214 -130.5 -330.5t-368.5 -116.5h-398v-301q0 -12 -12 -12h-43q-14 0 -14 12zM268 379h394q214 0 324 98.5t110 282.5t-111 282.5t-323 98.5h-394v-762z" />
<glyph unicode="&#xdf;" horiz-adv-x="1097" d="M158 12v1065q0 198 100.5 303t282.5 105q189 0 293 -98.5t104 -284.5q0 -127 -57.5 -209t-161.5 -115q276 -67 276 -381q0 -199 -116 -307t-330 -108q-116 0 -221 47q-11 3 -11 14v39q0 14 15 8q109 -45 213 -45q188 0 286.5 90.5t98.5 263.5q0 71 -18.5 130t-58 109 t-112 78.5t-172.5 28.5h-217q-12 0 -12 13v35q0 12 12 12h217q84 0 146 26.5t94.5 71.5t47.5 94t15 105q0 160 -83.5 241.5t-247.5 81.5q-156 0 -237 -88.5t-81 -259.5v-1065q0 -12 -12 -12h-41q-12 0 -12 12z" />
<glyph unicode="&#xe0;" horiz-adv-x="1024" d="M80 307q0 153 110.5 236.5t309.5 83.5q137 0 315 -39v106q0 318 -315 318q-92 0 -178.5 -25.5t-149.5 -64.5q-11 -5 -18 2l-19 28q-4 13 0 17q69 48 164.5 76t202.5 28q189 0 284 -100t95 -277v-630q0 -12 -11 -15q-165 -71 -370 -71q-185 0 -302.5 87.5t-117.5 239.5z M145 307q0 -122 99 -195t256 -73q166 0 315 57v434q-164 37 -315 37q-172 0 -263.5 -67.5t-91.5 -192.5zM336 1509q-10 17 6 17h51q11 0 15 -8l170 -275q4 -7 0.5 -11.5t-11.5 -4.5h-30q-9 0 -17 8z" />
<glyph unicode="&#xe1;" horiz-adv-x="1024" d="M80 307q0 153 110.5 236.5t309.5 83.5q137 0 315 -39v106q0 318 -315 318q-92 0 -178.5 -25.5t-149.5 -64.5q-11 -5 -18 2l-19 28q-4 13 0 17q69 48 164.5 76t202.5 28q189 0 284 -100t95 -277v-630q0 -12 -11 -15q-165 -71 -370 -71q-185 0 -302.5 87.5t-117.5 239.5z M145 307q0 -122 99 -195t256 -73q166 0 315 57v434q-164 37 -315 37q-172 0 -263.5 -67.5t-91.5 -192.5zM415 1231.5q-3 4.5 1 11.5l170 275q4 8 14 8h51q16 0 6 -17l-184 -274q-8 -8 -16 -8h-31q-8 0 -11 4.5z" />
<glyph unicode="&#xe2;" horiz-adv-x="1024" d="M80 307q0 153 110.5 236.5t309.5 83.5q137 0 315 -39v106q0 318 -315 318q-92 0 -178.5 -25.5t-149.5 -64.5q-11 -5 -18 2l-19 28q-4 13 0 17q69 48 164.5 76t202.5 28q189 0 284 -100t95 -277v-630q0 -12 -11 -15q-165 -71 -370 -71q-185 0 -302.5 87.5t-117.5 239.5z M145 307q0 -122 99 -195t256 -73q166 0 315 57v434q-164 37 -315 37q-172 0 -263.5 -67.5t-91.5 -192.5zM246 1243l233 275q8 8 17 8h32q9 0 17 -8l231 -275q6 -7 4 -11.5t-10 -4.5h-43q-10 0 -14 8l-201 240l-201 -240q-8 -8 -16 -8h-41q-18 0 -8 16z" />
<glyph unicode="&#xe3;" horiz-adv-x="1024" d="M80 307q0 153 110.5 236.5t309.5 83.5q137 0 315 -39v106q0 318 -315 318q-92 0 -178.5 -25.5t-149.5 -64.5q-11 -5 -18 2l-19 28q-4 13 0 17q69 48 164.5 76t202.5 28q189 0 284 -100t95 -277v-630q0 -12 -11 -15q-165 -71 -370 -71q-185 0 -302.5 87.5t-117.5 239.5z M145 307q0 -122 99 -195t256 -73q166 0 315 57v434q-164 37 -315 37q-172 0 -263.5 -67.5t-91.5 -192.5zM223 1319q17 43 54.5 73.5t87.5 30.5q13 0 27 -2.5t23 -4.5t26 -9t21.5 -9.5t25 -12.5t22.5 -11q7 -3 23.5 -12t26 -13t23.5 -9.5t26.5 -8t25.5 -2.5q60 0 96 76 q4 13 14 6l25 -12q10 -7 8 -17q-14 -44 -52.5 -76t-86.5 -32q-47 0 -139 47q-85 47 -133 47q-66 0 -97 -74q-5 -10 -16 -6l-25 12q-11 8 -6 19z" />
<glyph unicode="&#xe4;" horiz-adv-x="1024" d="M80 307q0 153 110.5 236.5t309.5 83.5q137 0 315 -39v106q0 318 -315 318q-92 0 -178.5 -25.5t-149.5 -64.5q-11 -5 -18 2l-19 28q-4 13 0 17q69 48 164.5 76t202.5 28q189 0 284 -100t95 -277v-630q0 -12 -11 -15q-165 -71 -370 -71q-185 0 -302.5 87.5t-117.5 239.5z M145 307q0 -122 99 -195t256 -73q166 0 315 57v434q-164 37 -315 37q-172 0 -263.5 -67.5t-91.5 -192.5zM276 1335q0 25 14.5 39.5t37.5 14.5t37 -14.5t14 -39.5q0 -23 -14 -37t-37 -14t-37.5 14t-14.5 37zM629 1335q0 25 14.5 39.5t38.5 14.5q23 0 37 -14.5t14 -39.5 q0 -23 -14 -37t-37 -14t-38 14t-15 37z" />
<glyph unicode="&#xe5;" horiz-adv-x="1024" d="M80 307q0 153 110.5 236.5t309.5 83.5q137 0 315 -39v106q0 318 -315 318q-92 0 -178.5 -25.5t-149.5 -64.5q-11 -5 -18 2l-19 28q-4 13 0 17q69 48 164.5 76t202.5 28q189 0 284 -100t95 -277v-630q0 -12 -11 -15q-165 -71 -370 -71q-185 0 -302.5 87.5t-117.5 239.5z M145 307q0 -122 99 -195t256 -73q166 0 315 57v434q-164 37 -315 37q-172 0 -263.5 -67.5t-91.5 -192.5zM305 1370q0 86 55.5 137.5t143.5 51.5q87 0 141.5 -51.5t54.5 -137.5q0 -87 -54 -137.5t-142 -50.5q-89 0 -144 50.5t-55 137.5zM356 1370q0 -61 41.5 -100t106.5 -39 q64 0 104.5 38.5t40.5 100.5t-40.5 100.5t-104.5 38.5q-65 0 -106.5 -39t-41.5 -100z" />
<glyph unicode="&#xe6;" horiz-adv-x="1710" d="M80 307q0 148 110 229.5t304 81.5q124 0 309 -36v118q0 148 -75.5 230t-233.5 82q-183 0 -330 -90q-9 -6 -17 2l-16 28q-4 13 2 19q152 102 365 102q134 0 222 -60t122 -169q38 109 135 169t229 60q179 0 289.5 -102.5t110.5 -282.5v-158q0 -12 -15 -12h-723v-182 q0 -142 88.5 -217.5t231.5 -75.5q211 0 358 143q10 10 19 -2l22 -26q3 -4 3 -9t-5 -8q-167 -159 -399 -159q-193 0 -309 135q-70 -60 -170.5 -98.5t-212.5 -38.5q-180 0 -297 88.5t-117 238.5zM147 307q0 -121 97 -194.5t250 -73.5q194 0 348 125q-39 76 -39 170v188 q-164 37 -307 37q-170 0 -259.5 -65t-89.5 -187zM868 575h672v111q0 153 -91.5 239.5t-244.5 86.5q-155 0 -245.5 -86t-90.5 -242v-109z" />
<glyph unicode="&#xe7;" horiz-adv-x="948" d="M119 358v336q0 163 110 271t297 108q178 0 328 -108q11 -8 4 -19l-18 -28q-12 -8 -19 -3q-134 97 -297 97q-159 0 -249.5 -91t-90.5 -227v-336q0 -137 91 -228t249 -91q170 0 324 115q11 8 18 -2l21 -27q9 -13 -4 -19q-147 -117 -332 -126l-37 -101q88 0 137 -35.5 t49 -103.5q0 -70 -54 -113t-146 -43q-59 0 -121 19q-10 5 -10 16v23q0 13 14 10q62 -19 113 -19q70 0 107.5 29t37.5 80q0 52 -38.5 76t-129.5 24q-11 0 -16 8q-1 2 -1 7t1 8l43 115q-176 9 -278.5 115.5t-102.5 262.5z" />
<glyph unicode="&#xe8;" horiz-adv-x="1038" d="M119 352v332q0 183 111.5 286t295.5 103t296 -103t112 -286v-184q0 -13 -12 -13h-738v-135q0 -144 99.5 -228.5t244.5 -84.5q190 0 349 143q10 7 16 -2l22 -26q11 -11 -2 -17q-169 -157 -387 -157q-169 0 -288 101t-119 271zM184 545h684v139q0 155 -93 241.5t-249 86.5 q-158 0 -250 -86t-92 -242v-139zM352 1509q-10 17 6 17h52q10 0 14 -8l170 -275q4 -7 1 -11.5t-11 -4.5h-31q-8 0 -16 8z" />
<glyph unicode="&#xe9;" horiz-adv-x="1038" d="M119 352v332q0 183 111.5 286t295.5 103t296 -103t112 -286v-184q0 -13 -12 -13h-738v-135q0 -144 99.5 -228.5t244.5 -84.5q190 0 349 143q10 7 16 -2l22 -26q11 -11 -2 -17q-169 -157 -387 -157q-169 0 -288 101t-119 271zM184 545h684v139q0 155 -93 241.5t-249 86.5 q-158 0 -250 -86t-92 -242v-139zM429 1231.5q-3 4.5 1 11.5l170 275q4 8 14 8h52q16 0 6 -17l-185 -274q-8 -8 -16 -8h-31q-8 0 -11 4.5z" />
<glyph unicode="&#xea;" horiz-adv-x="1038" d="M119 352v332q0 183 111.5 286t295.5 103t296 -103t112 -286v-184q0 -13 -12 -13h-738v-135q0 -144 99.5 -228.5t244.5 -84.5q190 0 349 143q10 7 16 -2l22 -26q11 -11 -2 -17q-169 -157 -387 -157q-169 0 -288 101t-119 271zM184 545h684v139q0 155 -93 241.5t-249 86.5 q-158 0 -250 -86t-92 -242v-139zM260 1243l234 275q8 8 16 8h33q8 0 16 -8l232 -275q6 -7 3.5 -11.5t-10.5 -4.5h-43q-10 0 -14 8l-201 240l-200 -240q-8 -8 -17 -8h-41q-18 0 -8 16z" />
<glyph unicode="&#xeb;" horiz-adv-x="1038" d="M119 352v332q0 183 111.5 286t295.5 103t296 -103t112 -286v-184q0 -13 -12 -13h-738v-135q0 -144 99.5 -228.5t244.5 -84.5q190 0 349 143q10 7 16 -2l22 -26q11 -11 -2 -17q-169 -157 -387 -157q-169 0 -288 101t-119 271zM184 545h684v139q0 155 -93 241.5t-249 86.5 q-158 0 -250 -86t-92 -242v-139zM299 1335q0 25 14 39.5t37 14.5t37 -14.5t14 -39.5q0 -23 -14 -37t-37 -14t-37 14t-14 37zM651 1335q0 24 15 39t39 15q23 0 37 -14.5t14 -39.5q0 -23 -14 -37t-37 -14q-24 0 -39 14t-15 37z" />
<glyph unicode="&#xec;" horiz-adv-x="380" d="M8 1509q-10 17 6 17h52q10 0 14 -8l170 -275q4 -7 1 -11.5t-11 -4.5h-31q-8 0 -16 8zM158 12v1026q0 6 3.5 10.5t8.5 4.5h41q12 0 12 -15v-1026q0 -12 -12 -12h-41q-12 0 -12 12z" />
<glyph unicode="&#xed;" horiz-adv-x="380" d="M140.5 1231.5q-3.5 4.5 0.5 11.5l170 275q4 8 15 8h51q16 0 6 -17l-184 -274q-8 -8 -17 -8h-30q-8 0 -11.5 4.5zM158 12v1026q0 6 3.5 10.5t8.5 4.5h41q12 0 12 -15v-1026q0 -12 -12 -12h-41q-12 0 -12 12z" />
<glyph unicode="&#xee;" horiz-adv-x="380" d="M-49 1243l205 275q4 8 14 8h41q8 0 16 -8l205 -275q8 -16 -8 -16h-39q-12 0 -16 8l-179 246l-176 -246q-8 -8 -16 -8h-39q-16 0 -8 16zM158 12v1026q0 15 12 15h39q14 0 14 -15v-1026q0 -12 -14 -12h-39q-12 0 -12 12z" />
<glyph unicode="&#xef;" horiz-adv-x="380" d="M8 1335q0 24 14 39t37 15t37.5 -15.5t14.5 -38.5q0 -22 -14.5 -36.5t-37.5 -14.5t-37 14.5t-14 36.5zM158 12v1026q0 15 12 15h39q14 0 14 -15v-1026q0 -12 -14 -12h-39q-12 0 -12 12zM268 1335q0 24 14 39t37 15t37.5 -15.5t14.5 -38.5q0 -22 -14.5 -36.5t-37.5 -14.5 t-37 14.5t-14 36.5z" />
<glyph unicode="&#xf0;" horiz-adv-x="1097" d="M117 365v274q0 167 110.5 275t302.5 108q259 0 361 -180q-22 289 -189 434l-229 -178q-11 -7 -16 0l-17 20q-8 8 0 19l219 172q-114 80 -307 127q-12 4 -10 14l4 33q3 13 16 10q228 -50 349 -145l176 137q13 8 16 -2l15 -19q7 -11 0 -18l-168 -131q206 -190 206 -600 v-350q0 -169 -110 -277t-309 -108q-198 0 -309 108t-111 277zM182 365q0 -143 92.5 -234.5t262.5 -91.5q173 0 263.5 91t90.5 235v274q2 145 -89 234.5t-265 89.5q-170 0 -262.5 -91t-92.5 -233v-274z" />
<glyph unicode="&#xf1;" horiz-adv-x="1120" d="M156 12v967q0 9 10 16q177 78 373 78q207 0 320.5 -105t113.5 -309v-647q0 -12 -12 -12h-39q-15 0 -15 12v645q0 177 -94.5 266t-273.5 89q-164 0 -318 -60v-940q0 -12 -12 -12h-41q-12 0 -12 12zM281 1319q17 43 54 73.5t87 30.5q13 0 27 -2.5t23 -4.5t26 -9t21.5 -9.5 t25 -12.5t22.5 -11q7 -3 23.5 -12t26 -13t23.5 -9.5t26.5 -8t25.5 -2.5q60 0 96 76q4 13 15 6l24 -12q11 -8 9 -17q-14 -44 -52.5 -76t-87.5 -32q-47 0 -139 47q-85 47 -133 47q-65 0 -96 -74q-5 -10 -17 -6l-24 12q-11 8 -6 19z" />
<glyph unicode="&#xf2;" d="M119 365v323q0 168 113 276.5t313 108.5q202 0 314 -108.5t112 -276.5v-323q0 -169 -112 -277t-314 -108q-201 0 -313.5 108t-112.5 277zM184 365q0 -143 94 -234.5t267 -91.5q174 0 267 91.5t93 234.5v323q0 142 -93 233t-267 91q-173 0 -267 -91t-94 -233v-323z M362 1509q-10 17 7 17h51q10 0 14 -8l170 -275q4 -7 1 -11.5t-11 -4.5h-31q-8 0 -16 8z" />
<glyph unicode="&#xf3;" d="M119 365v323q0 168 113 276.5t313 108.5q202 0 314 -108.5t112 -276.5v-323q0 -169 -112 -277t-314 -108q-201 0 -313.5 108t-112.5 277zM184 365q0 -143 94 -234.5t267 -91.5q174 0 267 91.5t93 234.5v323q0 142 -93 233t-267 91q-173 0 -267 -91t-94 -233v-323z M448 1231.5q-3 4.5 1 11.5l169 275q4 8 15 8h51q16 0 6 -17l-184 -274q-8 -8 -17 -8h-30q-8 0 -11 4.5z" />
<glyph unicode="&#xf4;" d="M119 365v323q0 168 113 276.5t313 108.5q202 0 314 -108.5t112 -276.5v-323q0 -169 -112 -277t-314 -108q-201 0 -313.5 108t-112.5 277zM184 365q0 -143 94 -234.5t267 -91.5q174 0 267 91.5t93 234.5v323q0 142 -93 233t-267 91q-173 0 -267 -91t-94 -233v-323z M279 1243l233 275q8 8 16 8h33q9 0 17 -8l231 -275q6 -7 4 -11.5t-10 -4.5h-43q-11 0 -15 8l-200 240l-201 -240q-8 -8 -16 -8h-41q-18 0 -8 16z" />
<glyph unicode="&#xf5;" d="M119 365v323q0 168 113 276.5t313 108.5q202 0 314 -108.5t112 -276.5v-323q0 -169 -112 -277t-314 -108q-201 0 -313.5 108t-112.5 277zM184 365q0 -143 94 -234.5t267 -91.5q174 0 267 91.5t93 234.5v323q0 142 -93 233t-267 91q-173 0 -267 -91t-94 -233v-323z M268 1319q17 43 54.5 73.5t87.5 30.5q13 0 27 -2.5t23 -4.5t26 -9t21.5 -9.5t25 -12.5t22.5 -11q7 -3 23.5 -12t26 -13t23.5 -9.5t26.5 -8t25.5 -2.5q60 0 96 76q4 13 15 6l24 -12q10 -7 8 -17q-14 -44 -52.5 -76t-86.5 -32q-47 0 -139 47q-85 47 -133 47q-66 0 -97 -74 q-5 -10 -16 -6l-25 12q-11 8 -6 19z" />
<glyph unicode="&#xf6;" d="M119 365v323q0 168 113 276.5t313 108.5q202 0 314 -108.5t112 -276.5v-323q0 -169 -112 -277t-314 -108q-201 0 -313.5 108t-112.5 277zM184 365q0 -143 94 -234.5t267 -91.5q174 0 267 91.5t93 234.5v323q0 142 -93 233t-267 91q-173 0 -267 -91t-94 -233v-323z M317 1335q0 25 14.5 39.5t37.5 14.5t37 -14.5t14 -39.5q0 -23 -14 -37t-37 -14t-37.5 14t-14.5 37zM670 1335q0 25 15 39.5t38 14.5t37 -14.5t14 -39.5q0 -23 -14 -37t-37 -14t-38 14t-15 37z" />
<glyph unicode="&#xf7;" horiz-adv-x="1122" d="M127 664v38q0 13 12 13h844q12 0 12 -13v-38q0 -13 -12 -13h-844q-12 0 -12 13zM508 336q0 25 14 40t39 15t40 -15t15 -40t-15 -40t-40 -15t-39 15t-14 40zM508 1012q0 25 14 40t39 15t40 -15t15 -40t-15 -40.5t-40 -15.5q-24 0 -38.5 15.5t-14.5 40.5z" />
<glyph unicode="&#xf8;" d="M119 365v323q0 168 113 276.5t313 108.5q151 0 256 -65l104 170q8 8 17 8h36q16 0 9 -17l-121 -194q125 -104 125 -287v-323q0 -169 -112 -277t-314 -108q-161 0 -264 73l-97 -153q-3 -9 -14 -9h-37q-15 0 -8 17l111 178q-117 108 -117 279zM186 365q0 -137 82 -222 l502 809q-88 60 -225 60q-173 0 -266 -91t-93 -233v-323zM311 106q93 -67 234 -67q176 0 268 91t92 235v323q0 144 -92 230z" />
<glyph unicode="&#xf9;" horiz-adv-x="1105" d="M150 393v645q0 15 12 15h41q12 0 12 -15v-645q0 -176 93 -265t267 -89q153 0 310 61v938q0 15 14 15h39q12 0 12 -15v-964q0 -14 -10 -17q-167 -77 -365 -77q-201 0 -313 105.5t-112 307.5zM379 1509q-10 17 6 17h51q11 0 15 -8l170 -275q4 -7 0.5 -11.5t-11.5 -4.5h-30 q-9 0 -17 8z" />
<glyph unicode="&#xfa;" horiz-adv-x="1105" d="M150 393v645q0 15 12 15h41q12 0 12 -15v-645q0 -176 93 -265t267 -89q153 0 310 61v938q0 15 14 15h39q12 0 12 -15v-964q0 -14 -10 -17q-167 -77 -365 -77q-201 0 -313 105.5t-112 307.5zM454 1231.5q-3 4.5 1 11.5l170 275q4 8 14 8h51q16 0 6 -17l-184 -274 q-8 -8 -16 -8h-31q-8 0 -11 4.5z" />
<glyph unicode="&#xfb;" horiz-adv-x="1105" d="M150 393v645q0 15 12 15h41q12 0 12 -15v-645q0 -176 93 -265t267 -89q153 0 310 61v938q0 15 14 15h39q12 0 12 -15v-964q0 -14 -10 -17q-167 -77 -365 -77q-201 0 -313 105.5t-112 307.5zM285 1243l233 275q8 8 17 8h32q9 0 17 -8l231 -275q6 -7 4 -11.5t-10 -4.5h-43 q-10 0 -14 8l-201 240l-201 -240q-8 -8 -16 -8h-41q-18 0 -8 16z" />
<glyph unicode="&#xfc;" horiz-adv-x="1105" d="M150 393v645q0 15 12 15h41q12 0 12 -15v-645q0 -176 93 -265t267 -89q153 0 310 61v938q0 15 14 15h39q12 0 12 -15v-964q0 -14 -10 -17q-167 -77 -365 -77q-201 0 -313 105.5t-112 307.5zM324 1335q0 25 14 39.5t37 14.5t37 -14.5t14 -39.5q0 -23 -14 -37t-37 -14 t-37 14t-14 37zM676 1335q0 25 15 39.5t38 14.5t37 -14.5t14 -39.5q0 -23 -14 -37t-37 -14t-38 14t-15 37z" />
<glyph unicode="&#xfd;" horiz-adv-x="1105" d="M147 434v604q0 15 13 15h39q14 0 14 -15v-602q0 -168 97 -252t268 -84q159 0 305 76v862q0 15 12 15h41q12 0 12 -15v-1069q0 -173 -99 -276t-296 -103q-206 0 -383 160q-8 8 0 19l23 26q7 11 16 2q79 -69 160.5 -107t183.5 -38q167 0 249.5 84.5t80.5 234.5v142 q-142 -74 -312 -74q-195 0 -309.5 100.5t-114.5 294.5zM458 1231.5q-3 4.5 1 11.5l170 275q4 8 14 8h51q16 0 6 -17l-184 -274q-8 -8 -16 -8h-31q-8 0 -11 4.5z" />
<glyph unicode="&#xfe;" horiz-adv-x="1091" d="M158 -377v1827q0 12 12 12h41q12 0 12 -12v-442q146 65 322 65q199 0 313.5 -100.5t114.5 -292.5v-307q0 -191 -115 -292t-313 -101q-173 0 -322 65v-422q0 -14 -12 -14h-41q-12 0 -12 14zM223 106q154 -67 320 -67q173 0 268.5 86t95.5 254v293q0 170 -95 256.5 t-273 83.5q-164 0 -316 -66v-840z" />
<glyph unicode="&#xff;" horiz-adv-x="1105" d="M147 434v604q0 15 13 15h39q14 0 14 -15v-602q0 -168 97 -252t268 -84q159 0 305 76v862q0 15 12 15h41q12 0 12 -15v-1069q0 -173 -99 -276t-296 -103q-206 0 -383 160q-8 8 0 19l23 26q7 11 16 2q79 -69 160.5 -107t183.5 -38q167 0 249.5 84.5t80.5 234.5v142 q-142 -74 -312 -74q-195 0 -309.5 100.5t-114.5 294.5zM328 1335q0 25 14 39.5t37 14.5t37 -14.5t14 -39.5q0 -23 -14 -37t-37 -14t-37 14t-14 37zM680 1335q0 25 15 39.5t38 14.5t37 -14.5t14 -39.5q0 -23 -14 -37t-37 -14t-38 14t-15 37z" />
<glyph unicode="&#x152;" horiz-adv-x="2045" d="M147 479v492q0 234 144.5 374t376.5 140q147 0 263 -69t169 -187v223q0 12 12 12h793q12 0 12 -12v-39q0 -14 -12 -14h-738v-621h697q12 0 12 -12v-39q0 -14 -12 -14h-697v-647h768q13 0 13 -15v-39q0 -12 -13 -12h-823q-12 0 -12 12v219q-55 -115 -170.5 -183 t-261.5 -68q-230 0 -375.5 138t-145.5 361zM217 479q0 -195 125 -315.5t326 -120.5q191 0 310.5 117.5t119.5 300.5v528q0 194 -118.5 313t-311.5 119q-204 0 -327.5 -122t-123.5 -328v-492z" />
<glyph unicode="&#x153;" horiz-adv-x="1824" d="M119 365v323q0 168 113 276.5t313 108.5q149 0 249.5 -62.5t141.5 -168.5q42 112 141.5 171.5t235.5 59.5q182 0 294.5 -103.5t112.5 -285.5v-184q0 -13 -14 -13h-735v-135q0 -143 99 -228t243 -85q189 0 348 147q10 6 18 -2l23 -26q10 -10 -2 -19q-175 -159 -387 -159 q-126 0 -230 60.5t-147 166.5q-43 -107 -141.5 -167t-249.5 -60q-201 0 -313.5 108t-112.5 277zM184 365q0 -143 94 -234.5t267 -91.5q175 0 267.5 89.5t92.5 236.5v323q0 142 -93 233t-267 91q-173 0 -267 -91t-94 -233v-323zM971 545h684v139q0 155 -93 241.5t-249 86.5 q-159 0 -250.5 -86t-91.5 -242v-139z" />
<glyph unicode="&#x178;" horiz-adv-x="1097" d="M20 1448q-6 16 11 16h49q11 0 14 -8l455 -809l455 809q3 8 16 8h47q16 0 10 -16l-493 -868v-568q0 -12 -15 -12h-43q-12 0 -12 12v568zM293 1763q0 23 14 37.5t37 14.5q24 0 38.5 -14.5t14.5 -37.5q0 -25 -14 -39t-39 -14q-23 0 -37 14t-14 39zM700 1763q0 23 14.5 37.5 t37.5 14.5q24 0 38.5 -14.5t14.5 -37.5q0 -25 -14 -39t-39 -14q-24 0 -38 14t-14 39z" />
<glyph unicode="&#x2c6;" horiz-adv-x="618" d="M43 1243l233 275q8 8 17 8h33q8 0 16 -8l231 -275q6 -7 4 -11.5t-10 -4.5h-43q-10 0 -14 8l-201 240l-200 -240q-8 -8 -17 -8h-41q-18 0 -8 16z" />
<glyph unicode="&#x2dc;" horiz-adv-x="569" d="M8 1327q17 43 54.5 74t87.5 31q15 0 29 -2t33 -9.5t25.5 -10t31 -15t26.5 -13.5q7 -3 23.5 -12t26 -13t23.5 -9.5t26.5 -8t25.5 -2.5q60 0 96 76q4 13 14 6l25 -12q10 -7 8 -16q-15 -44 -53 -76.5t-86 -32.5q-47 0 -139 47q-85 47 -133 47q-66 0 -97 -73q-5 -11 -16 -7 l-25 13q-11 8 -6 18z" />
<glyph unicode="&#x2000;" horiz-adv-x="980" />
<glyph unicode="&#x2001;" horiz-adv-x="1960" />
<glyph unicode="&#x2002;" horiz-adv-x="980" />
<glyph unicode="&#x2003;" horiz-adv-x="1960" />
<glyph unicode="&#x2004;" horiz-adv-x="653" />
<glyph unicode="&#x2005;" horiz-adv-x="490" />
<glyph unicode="&#x2006;" horiz-adv-x="326" />
<glyph unicode="&#x2007;" horiz-adv-x="326" />
<glyph unicode="&#x2008;" horiz-adv-x="245" />
<glyph unicode="&#x2009;" horiz-adv-x="392" />
<glyph unicode="&#x200a;" horiz-adv-x="108" />
<glyph unicode="&#x2010;" horiz-adv-x="819" d="M143 610v37q0 12 13 12h508q12 0 12 -12v-37q0 -12 -12 -12h-508q-13 0 -13 12z" />
<glyph unicode="&#x2011;" horiz-adv-x="819" d="M143 610v37q0 12 13 12h508q12 0 12 -12v-37q0 -12 -12 -12h-508q-13 0 -13 12z" />
<glyph unicode="&#x2012;" horiz-adv-x="819" d="M143 610v37q0 12 13 12h508q12 0 12 -12v-37q0 -12 -12 -12h-508q-13 0 -13 12z" />
<glyph unicode="&#x2013;" horiz-adv-x="1181" d="M143 610v37q0 12 13 12h870q12 0 12 -12v-37q0 -12 -12 -12h-870q-13 0 -13 12z" />
<glyph unicode="&#x2014;" horiz-adv-x="1894" d="M143 610v37q0 12 15 12h1579q14 0 14 -12v-37q0 -12 -14 -12h-1579q-15 0 -15 12z" />
<glyph unicode="&#x2018;" horiz-adv-x="366" d="M109 1112l110 342q3 10 12 10h31q6 0 9.5 -4t2.5 -10l-92 -342q-7 -10 -14 -10h-49q-6 0 -9.5 4t-0.5 10z" />
<glyph unicode="&#x2019;" horiz-adv-x="360" d="M113 1112l90 342q7 10 14 10h49q6 0 9.5 -4t0.5 -10l-108 -342q-3 -10 -12 -10h-31q-7 0 -11 4t-1 10z" />
<glyph unicode="&#x201a;" horiz-adv-x="364" d="M63 -205l93 342q5 10 14 10h49q13 0 10 -16l-108 -340q-3 -10 -15 -10h-30q-16 0 -13 14z" />
<glyph unicode="&#x201c;" horiz-adv-x="577" d="M111 1112l110 342q3 10 15 10h30q6 0 10 -4t3 -10l-95 -342q-3 -10 -12 -10h-51q-13 0 -10 14zM319 1112l111 342q3 10 14 10h31q15 0 12 -14l-94 -342q-3 -10 -12 -10h-51q-14 0 -11 14z" />
<glyph unicode="&#x201d;" horiz-adv-x="569" d="M113 1112l90 342q7 10 14 10h49q6 0 9.5 -4t0.5 -10l-108 -342q-3 -10 -12 -10h-31q-18 0 -12 14zM319 1112l93 342q3 10 14 10h49q13 0 10 -14l-108 -342q-3 -10 -12 -10h-33q-16 0 -13 14z" />
<glyph unicode="&#x201e;" horiz-adv-x="571" d="M63 -203l93 340q4 13 12 13h49q6 0 9.5 -5t0.5 -12l-108 -340q-3 -10 -13 -10h-30q-7 0 -11.5 3.5t-1.5 10.5zM272 -203l90 340q9 13 15 13h49q6 0 9.5 -5t0.5 -12l-108 -340q-3 -10 -13 -10h-30q-7 0 -11.5 3.5t-1.5 10.5z" />
<glyph unicode="&#x2022;" horiz-adv-x="589" d="M201 639q0 43 25.5 68.5t68.5 25.5t68.5 -25.5t25.5 -68.5t-25.5 -68.5t-68.5 -25.5t-68.5 25.5t-25.5 68.5z" />
<glyph unicode="&#x2026;" horiz-adv-x="1060" d="M117 51q0 25 15 40t40 15t39 -15t14 -40t-14 -40t-39 -15t-40 15t-15 40zM475 51q0 25 15 40t40 15t40.5 -15t15.5 -40t-15.5 -40t-40.5 -15t-40 15t-15 40zM834 51q0 25 15 40t40 15t40 -15t15 -40t-15 -40t-40 -15t-40 15t-15 40z" />
<glyph unicode="&#x202f;" horiz-adv-x="392" />
<glyph unicode="&#x2039;" horiz-adv-x="546" d="M82 588q-3 8 0 16l295 434q3 9 14 9h47q6 0 8 -5.5t-2 -11.5l-294 -434l294 -434q4 -6 2 -11.5t-8 -5.5h-47q-11 0 -14 9z" />
<glyph unicode="&#x203a;" horiz-adv-x="546" d="M100.5 150.5q-2.5 5.5 1.5 11.5l295 434l-295 434q-4 6 -1.5 11.5t8.5 5.5h47q11 0 14 -9l295 -434q3 -8 0 -16l-295 -434q-3 -9 -14 -9h-47q-6 0 -8.5 5.5z" />
<glyph unicode="&#x205f;" horiz-adv-x="490" />
<glyph unicode="&#x20ac;" horiz-adv-x="1300" d="M98 582v30q0 4 4 8.5t9 4.5h102v223h-102q-13 0 -13 12v31q0 12 13 12h102v96q0 219 130.5 352.5t358.5 133.5q261 0 465 -152q11 -5 2 -18l-20 -31q-7 -11 -19 -2q-186 139 -430 139q-203 0 -311 -116t-108 -306v-96h630q13 0 13 -12v-31q0 -12 -13 -12h-630v-223h630 q13 0 13 -13v-30q0 -15 -13 -15h-630v-102q2 -191 111 -306.5t313 -115.5q253 0 444 156q9 9 16 -2l23 -31q10 -10 -2 -16q-193 -170 -477 -170q-232 0 -363 133t-133 352v102h-102q-5 0 -9 4.5t-4 10.5z" />
<glyph unicode="&#x2122;" horiz-adv-x="1300" d="M76 1434v20q0 10 10 10h414q10 0 10 -10v-20q0 -11 -10 -11h-187v-563q0 -10 -10 -10h-20q-11 0 -11 10v563h-186q-10 0 -10 11zM610 860v594q0 10 11 10h30q10 0 13 -8l167 -330l41 -79l39 79l166 330q3 8 13 8h30q10 0 10 -10v-594q0 -10 -10 -10h-20q-10 0 -10 10v531 l-58 -117l-141 -275q-3 -8 -12 -8h-13q-11 0 -14 8l-143 279l-58 113v-531q0 -10 -10 -10h-20q-11 0 -11 10z" />
<glyph unicode="&#x25fc;" horiz-adv-x="1054" d="M0 0v1055h1055v-1055h-1055z" />
</font>
</defs>
</svg>
